<svg xmlns="http://www.w3.org/2000/svg"><defs><font horiz-adv-x="612"><font-face ascent="731" bbox="-84 -269 1228 1048.55" cap-height="663" descent="-269" panose-1="2 0 5 3 4 0 0 2 0 4" underline-position="-50" underline-thickness="50" unicode-range="U+000D-FB04" x-height="488"/><missing-glyph d="M65 650h464v-650h-464v650zM455 604h-316l159-237zM483 88v474l-158-237zM455 47l-157 236-159-236h316zM112 88l157 237-157 237v-474z" horiz-adv-x="594"/><glyph d="M2 470l89 16q-5 17-8.5 36.5t-3.5 38.5q0 40 15 69.5t39.5 49 55.5 28.5 64 9q41 0 81.5-12.5t74.5-33.5l-20-50-38 8q-24 5-47.5 8.5t-40.5 3.5q-46 0-71.5-21.5t-25.5-66.5q0-17 3-34.5t8-30.5h179v-68h-174v-420h-88v420h-92v50zM411 488h88v-488h-88v488z" glyph-name="fi" horiz-adv-x="567" unicode="&#x66;&#x69;"/><glyph d="M593 14q-15-7-40-12t-45-5q-42 0-66 24t-24 71v617h88v-637l87-14v-44zM243 717q31 0 63.5-9t63.5-27l-15-52-28 5q-41 7-71 7-43 0-66.5-20t-23.5-66q0-15 3-34.5t8-32.5h176v-68h-171v-420h-88v420h-92v50l89 16q-5 17-8.5 37.5t-3.5 39.5q0 38 14 67t36.5 48.5 52 29 61.5 9.5z" glyph-name="fl" horiz-adv-x="600" unicode="&#x66;&#x6c;"/><glyph d="M369 625l-32 6q-23 5-44 7.5t-38 2.5q-43 0-66-20t-23-66q0-15 3-34.5t8-32.5h249q-5 17-8 37t-3 38q0 39 14 68t37 48 53 28.5 63 9.5q37 0 78-12t74-32l-20-51-38 8q-21 5-42.5 8t-41.5 3q-43 0-66.5-20t-23.5-66q0-15 3-34.5t8-32.5h179v-68h-174v-420h-88v420h-248v-420h-88v420h-92v50l89 16q-5 17-8.5 37.5t-3.5 39.5q0 39 13.5 68t36.5 48 53 28.5 63 9.5q34 0 71-10t69-29z" glyph-name="f_f" horiz-adv-x="684" unicode="&#x66;&#x66;"/><glyph d="M166 555q0-15 3-34.5t8-32.5h249q-5 16-8 35.5t-3 37.5q0 40 15 69.5t39.5 49 55.5 28.5 64 9q41 0 81.5-12.5t74.5-33.5l-20-50-38 8q-24 5-47.5 8.5t-40.5 3.5q-46 0-71.5-21.5t-25.5-66.5q0-17 3-34.5t8-30.5h179v-68h-174v-420h-88v420h-248v-420h-88v420h-92v50l89 16q-5 17-8.5 37.5t-3.5 39.5q0 39 13.5 68t36.5 48 53 28.5 63 9.5q34 0 71-10t69-29l-16-53-32 6q-23 5-44 7.5t-38 2.5q-43 0-66-20t-23-66zM747 488h88v-488h-88v488z" glyph-name="f_f_i" horiz-adv-x="903" unicode="&#x66;&#x66;&#x69;"/><glyph d="M166 555q0-15 3-34.5t8-32.5h249q-5 17-8 37t-3 38q0 38 14 67t36.5 48.5 52 29 61.5 9.5q31 0 63.5-9t63.5-27l-15-52-28 5q-41 7-71 7-43 0-66.5-20t-23.5-66q0-15 3-34.5t8-32.5h176v-68h-171v-420h-88v420h-248v-420h-88v420h-92v50l89 16q-5 17-8.5 37.5t-3.5 39.5q0 39 13.5 68t36.5 48 53 28.5 63 9.5q34 0 71-10t69-29l-16-53-32 6q-23 5-44 7.5t-38 2.5q-43 0-66-20t-23-66zM929 14q-15-7-40-12t-45-5q-42 0-66 24t-24 71v617h88v-637l87-14v-44z" glyph-name="f_f_l" horiz-adv-x="936" unicode="&#x66;&#x66;&#x6c;"/><glyph d="M2 470l89 16q-5 17-8.5 36.5t-3.5 38.5q0 40 15 69.5t39.5 49 55.5 28.5 64 9q41 0 81.5-12.5t74.5-33.5l-20-50-38 8q-24 5-47.5 8.5t-40.5 3.5q-46 0-71.5-21.5t-25.5-66.5q0-17 3-34.5t8-30.5h179v-68h-174v-420h-88v420h-92v50zM499-74q0-40-8.5-70.5t-29.5-52.5q-36-36-105-36-17 0-38 2.5t-35 6.5v46l50 9q23 5 38 10t24 14q9 10 12.5 25t3.5 41v567h88v-562z" glyph-name="f_j" horiz-adv-x="567" unicode="&#x66;&#x6a;"/><glyph d="M166 555q0-15 3-34.5t8-32.5h249q-5 16-8 35.5t-3 37.5q0 40 15 69.5t39.5 49 55.5 28.5 64 9q41 0 81.5-12.5t74.5-33.5l-20-50-38 8q-24 5-47.5 8.5t-40.5 3.5q-46 0-71.5-21.5t-25.5-66.5q0-17 3-34.5t8-30.5h179v-68h-174v-420h-88v420h-248v-420h-88v420h-92v50l89 16q-5 17-8.5 37.5t-3.5 39.5q0 39 13.5 68t36.5 48 53 28.5 63 9.5q34 0 71-10t69-29l-16-53-32 6q-23 5-44 7.5t-38 2.5q-43 0-66-20t-23-66zM835-74q0-40-8.5-70.5t-29.5-52.5q-36-36-105-36-17 0-38 2.5t-35 6.5v46l50 9q23 5 38 10t24 14q9 10 12.5 25t3.5 41v567h88v-562z" glyph-name="f_f_j" horiz-adv-x="903" unicode="&#x66;&#x66;&#x6a;"/><glyph d="M91 486q-5 17-8.5 37.5t-3.5 39.5q0 38 14 67t36.5 48.5 52 29 61.5 9.5q31 0 63.5-9t63.5-27l-15-52-28 5q-41 7-71 7-43 0-66.5-20t-23.5-66q0-15 3-34.5t8-32.5h238v134h88v-134h174v-68h-174v-277q0-40 17-57t52-17q15 0 35.5 4t48.5 12l35 9 21-48q-32-23-74.5-38.5t-80.5-15.5q-33 0-59 10t-44 27q-39 37-39 111v280h-233v-420h-88v420h-92v50z" glyph-name="f_t" horiz-adv-x="728" unicode="&#x66;&#x74;"/><glyph d="M166 555q0-15 3-34.5t8-32.5h249q-5 17-8 37t-3 38q0 38 14 67t36.5 48.5 52 29 61.5 9.5q31 0 63.5-9t63.5-27l-15-52-28 5q-41 7-71 7-43 0-66.5-20t-23.5-66q0-15 3-34.5t8-32.5h238v134h88v-134h174v-68h-174v-277q0-40 17-57t52-17q15 0 35.5 4t48.5 12l35 9 21-48q-32-23-74.5-38.5t-80.5-15.5q-33 0-59 10t-44 27q-39 37-39 111v280h-233v-420h-88v420h-248v-420h-88v420h-92v50l89 16q-5 17-8.5 37.5t-3.5 39.5q0 39 13.5 68t36.5 48 53 28.5 63 9.5q34 0 71-10t69-29l-16-53-32 6q-23 5-44 7.5t-38 2.5q-43 0-66-20t-23-66z" glyph-name="f_f_t" horiz-adv-x="1064" unicode="&#x66;&#x66;&#x74;"/><glyph d="M65 650h464v-650h-464v650zM455 604h-316l159-237zM483 88v474l-158-237zM455 47l-157 236-159-236h316zM112 88l157 237-157 237v-474z" glyph-name=".notdef" horiz-adv-x="594"/><glyph glyph-name=".null" horiz-adv-x="0"/><glyph glyph-name=".null" horiz-adv-x="0"/><glyph glyph-name="nonmarkingreturn" horiz-adv-x="232" unicode="&#xd;"/><glyph glyph-name="space" horiz-adv-x="232" unicode="&#x20;"/><glyph glyph-name="nonbreakingspace" horiz-adv-x="232" unicode="&#xa0;"/><glyph d="M500 156h-332l-56-146q-2-6-5-8t-11-2h-82l266 663h91q8 0 11-2t6-9l273-652h-85q-12 0-16 10zM196 230h274l-55 138q-33 83-53.5 134.5t-30.5 79.5h-1q-9-26-29-79.5t-52-134.5z" glyph-name="A" horiz-adv-x="675" unicode="&#x41;"/><glyph d="M74 663h249q109 0 160-41 51-40 51-120 0-43-18-81.5t-49-70.5q48-17 79.5-56t31.5-103q0-85-53-135-29-27-72-41.5t-103-14.5h-276v663zM167 77h178q81 0 112 34 26 28 26 81t-23 77q-14 15-39 22.5t-65 7.5h-189v-222zM369 373q16 0 24.5 4t16.5 13q14 17 23.5 44.5t9.5 57.5q0 47-21 68-25 26-95 26h-160v-213h202z" glyph-name="B" horiz-adv-x="620" unicode="&#x42;"/><glyph d="M639 119q-54-59-130-94t-157-35q-69 0-127 25t-99.5 70-65 108-23.5 139q0 70 23 132t65 108.5 100.5 73.5 129.5 27q95 0 165-50.5t104-133.5l-62-37-63 63q-35 35-69 52.5t-81 17.5q-51 0-91.5-18.5t-68-52.5-42-80.5-14.5-102.5q0-120 59.5-186.5t171.5-66.5q35 0 73.5 11.5t78.5 31.5l87 45z" glyph-name="C" horiz-adv-x="672" unicode="&#x43;"/><glyph d="M253 78q83 0 145 13t101 51q30 29 46.5 76.5t16.5 113.5-16.5 113-46.5 76q-39 38-101 51t-145 13h-86v-507h86zM74 0v663h197q100 0 173.5-21t123.5-67q44-41 67-101.5t23-141.5-23-142-67-102q-50-46-123.5-67t-173.5-21h-197z" glyph-name="D" horiz-adv-x="695" unicode="&#x44;"/><glyph d="M510 663v-77h-343v-205h307v-76h-307v-228h354v-77h-447v663h436z" glyph-name="E" horiz-adv-x="571" unicode="&#x45;"/><glyph d="M500 663v-77h-333v-205h297v-76h-297v-305h-93v663h426z" glyph-name="F" horiz-adv-x="533" unicode="&#x46;"/><glyph d="M581 464l-66 57q-38 32-72.5 48.5t-83.5 16.5q-54 0-95.5-18t-70.5-51-44-80-15-105q0-128 63-191.5t170-63.5q41 0 93.5 12.5t97.5 36.5q9 5 11 9t2 13v119h-129v71h203q10 0 13-2.5t3-10.5v-325h-66l-17 61-56-28q-44-22-83-32.5t-86-10.5q-72 0-130 26t-99.5 71.5-63.5 108-22 134.5q0 78 25.5 141t69.5 108 103 69.5 127 24.5q48 0 90.5-13t78-36 63-53.5 45.5-66.5z" glyph-name="G" horiz-adv-x="727" unicode="&#x47;"/><glyph d="M533 305h-366v-305h-93v663h93v-279h366v279h93v-663h-93v305z" glyph-name="H" horiz-adv-x="700" unicode="&#x48;"/><glyph d="M78 663h93v-663h-93v663z" glyph-name="I" horiz-adv-x="249" unicode="&#x49;"/><glyph d="M43 102l54-13q72-18 122-18 59 0 85 29 14 15 19 38t5 57v468h93v-461q0-57-13-95t-39-65q-25-25-60.5-38.5t-82.5-13.5q-52 0-105.5 15.5t-97.5 41.5z" glyph-name="J" horiz-adv-x="492" unicode="&#x4a;"/><glyph d="M279 338q-10-9-25-21t-30.5-24-30.5-22.5-26-16.5v-254h-93v663h93v-327l377 332 53-57-252-218 280-393h-92q-9 0-13.5 2t-9.5 8z" glyph-name="K" horiz-adv-x="637" unicode="&#x4b;"/><glyph d="M74 663h93v-586h324v-77h-417v663z" glyph-name="L" horiz-adv-x="522" unicode="&#x4c;"/><glyph d="M759 0h-90v521h-1q-6-10-17-25t-23.5-32-25.5-34-25-32l-129-163h-52q-8 0-11.5 2.5t-8.5 7.5l-122 153q-11 14-24 31t-25 33.5-22.5 31.5-17.5 27h-1v-521h-90v663h69q8 0 12-1.5t10-9.5l254-325h1l252 325q5 7 9.5 9t12.5 2h65v-663z" glyph-name="M" horiz-adv-x="833" unicode="&#x4d;"/><glyph d="M163 0h-89v663h64q8 0 12-1.5t10-8.5l286-358q17-21 34.5-43t33.5-43 29.5-38.5 22.5-29.5v522h89v-663h-63q-8 0-12 1.5t-10 8.5l-286 358q-17 21-34.5 43.5t-34 43.5-30.5 39-22 29v-523z" glyph-name="N" horiz-adv-x="729" unicode="&#x4e;"/><glyph d="M689 331q0-76-26-138.5t-71-107.5-104-70-125-25-125 25-104 70-71 107.5-26 138.5 26 139 71 108 104 70 125 25 125-25 104-70 71-108 26-139zM593 331q0 61-16.5 108t-47 79.5-73 49-93.5 16.5-93.5-16.5-73-49-47-79.5-16.5-108 16.5-108 47-79 73-48.5 93.5-16.5 93.5 16.5 73 48.5 47 79 16.5 108z" glyph-name="O" horiz-adv-x="726" unicode="&#x4f;"/><glyph d="M167 0h-93v663h242q65 0 115-13.5t85-47.5q26-25 40.5-63.5t14.5-87.5q0-54-16.5-99t-48.5-76q-25-24-55.5-36t-83.5-12h-200v-228zM167 304h220q21 0 33 5t21 16q17 20 26.5 54t9.5 71q0 65-31 98-20 21-53.5 29.5t-78.5 8.5h-147v-282z" glyph-name="P" horiz-adv-x="613" unicode="&#x50;"/><glyph d="M689 331q0-54-13.5-101.5t-37.5-86.5-57.5-69-72.5-50l116-160-93-42-107 174q-30-6-61-6-66 0-125 25t-104 70-71 107.5-26 138.5 26 139 71 108 104 70 125 25 125-25 104-70 71-108 26-139zM593 331q0 61-16.5 108t-47 79.5-73 49-93.5 16.5-93.5-16.5-73-49-47-79.5-16.5-108 16.5-108 47-79 73-48.5 93.5-16.5 93.5 16.5 73 48.5 47 79 16.5 108z" glyph-name="Q" horiz-adv-x="726" unicode="&#x51;"/><glyph d="M374 233q-4 7-7.5 8.5t-11.5 1.5h-188v-243h-93v663h240q73 0 121.5-14.5t81.5-47.5q25-26 39.5-62t14.5-81q0-69-33-120t-81-80l153-258h-87q-9 0-13 2.5t-8 8.5zM167 319h219q20 0 32 5.5t21 15.5q17 19 27.5 52t10.5 62q0 32-8.5 55.5t-23.5 39.5q-20 20-49.5 28.5t-75.5 8.5h-153v-267z" glyph-name="R" horiz-adv-x="641" unicode="&#x52;"/><glyph d="M133 96q45-11 82.5-17.5t71.5-6.5q72 0 111 30t39 85q0 22-6 38t-20.5 29.5-38 25-57.5 23.5l-77 27q-43 15-77 31.5t-57 37.5-35.5 47.5-12.5 61.5q0 40 17.5 71t49 52 74.5 31.5 93 10.5q48 0 102-10.5t102-30.5l-15-59-60 8q-34 5-68 7.5t-60 2.5q-72 0-110.5-18t-38.5-62q0-18 6.5-31.5t21-25 38-22.5 57.5-23l74-26q45-16 79.5-33t58-39.5 36-52.5 12.5-70q0-45-17-81.5t-48-62.5-75-40-99-14q-31 0-63.5 5t-64 14-60.5 21-53 26l23 56z" glyph-name="S" horiz-adv-x="569" unicode="&#x53;"/><glyph d="M246 586h-225v77h543v-77h-225v-586h-93v586z" glyph-name="T" horiz-adv-x="585" unicode="&#x54;"/><glyph d="M621 253q0-122-65-186-35-35-89.5-56t-120.5-21-121 20.5-90 55.5q-33 32-49 77.5t-16 108.5v411h93v-409q0-45 9-75t29-52q22-23 59-36t86-13 86 13 59 36q20 22 29.5 52t9.5 75v409h91v-410z" glyph-name="U" horiz-adv-x="691" unicode="&#x55;"/><glyph d="M646 663l-260-663h-93q-9 0-12.5 2t-6.5 9l-264 652h86q6 0 9-1.5t5-7.5l140-352q12-31 24.5-62.5t23.5-61.5 20-56.5 15-45.5h2q5 18 14 44t20 56 22.5 61.5 22.5 60.5l135 356q2 5 4.5 7t8.5 2h84z" glyph-name="V" horiz-adv-x="656" unicode="&#x56;"/><glyph d="M647 320q9-27 18-58t18-61.5 17-59 14-50.5h2q9 43 26.5 102t37.5 123l108 338q2 6 5 7.5t9 1.5h81l-217-663h-93q-14 0-18 11l-96 303q-10 31-20 64.5t-19 64.5-16 58-11 46h-2q-5-19-12-47t-15.5-60.5-17.5-66-18-63.5l-90-310h-94q-14 0-18 11l-216 652h83q7 0 10-1.5t5-7.5l107-333q10-33 20.5-66t19.5-63 16.5-56 11.5-45h2q3 18 9.5 44l14 56t17 62 18.5 64l102 346h79q8 0 11.5-1.5t5.5-9.5z" glyph-name="W" horiz-adv-x="993" unicode="&#x57;"/><glyph d="M8 0l257 346-243 317h90q9 0 12.5-1.5t8.5-7.5l187-243 179 243q5 6 8.5 7.5t12.5 1.5h84l-232-315 266-348h-89q-8 0-11.5 2t-8.5 7l-211 275-202-275q-4-5-8-7t-14-2h-86z" glyph-name="X" horiz-adv-x="646" unicode="&#x58;"/><glyph d="M358 217v-217h-93v217l-263 446h90q6 0 9-1.5t7-7.5l104-181q35-61 60.5-107.5t39.5-75.5h2q14 29 39.5 76t59.5 107l103 181q5 9 17 9h86z" glyph-name="Y" horiz-adv-x="621" unicode="&#x59;"/><glyph d="M43 586v77h485v-46q0-13-11-29l-253-362q-38-54-67.5-93t-41.5-56h378v-77h-491v45q0 8 2.5 14t8.5 15l254 362q37 52 64.5 89.5t44.5 60.5h-373z" glyph-name="Z" horiz-adv-x="575" unicode="&#x5a;"/><glyph d="M365 313q0 29-5 45.5t-16 28.5q-14 16-37.5 23t-53.5 7q-27 0-56.5-6t-58.5-17l-50-18-28 48q50 36 100.5 54t100.5 18q44 0 82.5-13.5t65.5-42.5q21-23 32.5-53t11.5-77v-238l71-13v-45q-15-7-35-11.5t-39-4.5q-26 0-45.5 12t-30.5 33l-33-17q-28-14-61-24t-66-10q-42 0-75 13t-57 36q-23 22-36 51t-13 62q0 64 43.5 98t123.5 34h8q15 0 34.5-1t41-2.5 42.5-4 39-4.5v39zM365 207q0 5-2 7.5t-10 2.5h-170q-18 0-29-3.5t-18-10.5q-15-15-15-46 0-38 27-64t79-26q32 0 67.5 9.5t61.5 23.5q9 5 9 16v91z" glyph-name="a" horiz-adv-x="536" unicode="&#x61;"/><glyph d="M155 127q0-9 3-12.5t8-6.5q26-14 61.5-24.5t69.5-10.5q30 0 55.5 8t44.5 28 30 52.5 11 82.5q0 48-10.5 81t-29.5 52.5-44 28-55 8.5q-34 0-70.5-10.5t-62.5-24.5q-5-3-8-6.5t-3-12.5v-233zM131 0h-64v709h88v-267l26 14q36 20 69 30t65 10q45 0 84.5-18t68-51 45-79.5 16.5-103.5-15.5-103.5-44-79.5-68-51-88.5-18q-32 0-63.5 9t-66.5 28l-34 18z" glyph-name="b" horiz-adv-x="566" unicode="&#x62;"/><glyph d="M486 83q-45-40-101-65.5t-112-25.5q-54 0-98 19t-74.5 53-47.5 80.5-17 101.5q0 54 18 100t49.5 79 75 52 93.5 19q36 0 69-10.5t60-30 46.5-46 29.5-58.5l-56-29-35 33q-35 33-61 48t-61 15q-60 0-98.5-44.5t-38.5-125.5q0-88 40.5-132t115.5-44q50 0 118 31l55 25z" glyph-name="c" horiz-adv-x="512" unicode="&#x63;"/><glyph d="M413 709h88v-709h-64l-17 48-35-19q-37-20-67.5-28.5t-63.5-8.5q-48 0-88 18t-68.5 51-44.5 79-16 102q0 61 19 108t50 79.5 71 49.5 81 17q34 0 66-10t64-27l25-13v263zM413 361q0 9-2 13t-10 8q-29 15-62.5 24t-64.5 9q-69 0-107.5-42t-38.5-130q0-91 37.5-130.5t103.5-39.5q33 0 70 10t63 24q7 4 9 8t2 12v234z" glyph-name="d" horiz-adv-x="568" unicode="&#x64;"/><glyph d="M490 73q-46-36-101.5-58.5t-109.5-22.5q-56 0-100.5 19t-76.5 53-49 80-17 100q0 56 18 102.5t49.5 79.5 74.5 51.5 93 18.5 91.5-18 71.5-49.5 47-73.5 17-90q0-25-6-34.5t-18-9.5h-347q5-66 43.5-107.5t115.5-41.5q29 0 61 8t60 19l54 21zM411 289q-4 57-40 92.5t-99 35.5q-62 0-100.5-33.5t-44.5-94.5h284z" glyph-name="e" horiz-adv-x="536" unicode="&#x65;"/><glyph d="M2 470l89 16q-5 17-8.5 37.5t-3.5 39.5q0 39 14 68t37 48 53 28.5 63 9.5q37 0 78-12t74-32l-20-51-38 8q-21 5-42.5 8t-41.5 3q-43 0-66.5-20t-23.5-66q0-15 3-34.5t8-32.5h179v-68h-174v-420h-88v420h-92v50z" glyph-name="f" horiz-adv-x="348" unicode="&#x66;"/><glyph d="M538 438l-97-22q-10-3-5-11 14-22 22-46t8-52q0-41-16-75.5t-44-60-65.5-39.5-80.5-14q-24 0-43 3.5t-31 8.5q-5 2-7.5 1t-4.5-5l-18-31q-8-13-8-19 0-5 6-8.5t23-3.5h147q54 0 89-11t57-33q17-17 25-40t8-50q0-38-18-70.5t-50.5-55.5-77.5-36-99-13-98.5 12.5-76 35-49 52.5-17.5 66q0 34 16.5 58t43.5 39q-17 19-17 39 0 14 7.5 27.5t21.5 30.5l38 47q-32 26-52.5 63t-20.5 82q0 41 16 75.5t44 60 65.5 39.5 80.5 14q37 0 71-11.5t60-31.5q38 29 59 41t39 12q13 0 25.5-5t23.5-13v-50zM381 307q0 58-33 86.5t-88 28.5-88-28.5-33-86.5 33-86.5 88-28.5 88 28.5 33 86.5zM158-12q-29 0-42-12-16-15-16-45 0-46 41.5-74.5t116.5-28.5q71 0 116 26t45 75q0 28-16 42-11 10-31 13.5t-48 3.5h-166z" glyph-name="g" horiz-adv-x="540" unicode="&#x67;"/><glyph d="M177 461q29 14 62.5 24.5t65.5 10.5q44 0 80.5-13.5t61.5-37.5q23-23 35.5-55t12.5-82v-308h-88v304q0 34-6 52t-19 31q-14 14-38.5 20t-53.5 6h-1q-32 0-67-8t-58-19q-6-3-7.5-6.5t-1.5-9.5v-370h-88v709h88v-259z" glyph-name="h" horiz-adv-x="554" unicode="&#x68;"/><glyph d="M68 488h88v-488h-88v488zM66 675h74q11 0 14.5-3.5t3.5-12.5v-78h-92v94z" glyph-name="i" horiz-adv-x="224" unicode="&#x69;"/><glyph d="M150-74q0-40-8.5-70.5t-29.5-52.5q-36-36-105-36-17 0-38 2.5t-35 6.5v46l50 9q23 5 38 10t24 14q9 10 12.5 25t3.5 41v567h88v-562zM60 675h74q11 0 14.5-3.5t3.5-12.5v-78h-92v94z" glyph-name="j" horiz-adv-x="218" unicode="&#x6a;"/><glyph d="M257 249q-23-19-50-38t-52-34v-177h-88v709h88v-454l290 243 48-55-173-144 204-299h-86q-9 0-13 2t-9 8z" glyph-name="k" horiz-adv-x="532" unicode="&#x6b;"/><glyph d="M243 14q-15-7-40-12t-45-5q-42 0-66 24t-24 71v617h88v-637l87-14v-44z" glyph-name="l" horiz-adv-x="250" unicode="&#x6c;"/><glyph d="M131 488l15-42 31 16q29 15 62 24.5t62 9.5q41 0 78-14t66-45l34 18q42 22 76 31.5t71 9.5q42 0 77-13.5t60-37.5q23-23 35.5-55t12.5-82v-308h-88v304q0 34-6 52t-19 31q-14 14-37 20t-51 6q-32 0-64-7t-58-19q-8-5-10-7t0-8q3-13 5-29t2-34v-309h-88v304q0 34-6 52t-19 31q-14 14-37 20t-51 6q-32 0-63-7.5t-57-19.5q-6-3-7.5-6.5t-1.5-9.5v-370h-88v488h64z" glyph-name="m" horiz-adv-x="870" unicode="&#x6d;"/><glyph d="M131 488l15-42 31 15q29 14 62.5 24.5t65.5 10.5q44 0 80.5-13.5t61.5-37.5q23-23 35.5-55t12.5-82v-308h-88v304q0 34-6 52t-19 31q-14 14-38.5 20t-53.5 6h-1q-32 0-67-8t-58-19q-6-3-7.5-6.5t-1.5-9.5v-370h-88v488h64z" glyph-name="n" horiz-adv-x="554" unicode="&#x6e;"/><glyph d="M517 244q0-58-19-104.5t-51.5-79.5-76-50.5-92.5-17.5h-3q-49 0-92.5 17.5t-76 50.5-51.5 79.5-19 104.5 19 104.5 51.5 79.5 76 50.5 92.5 17.5h3q49 0 92.5-17.5t76-50.5 51.5-79.5 19-104.5zM426 244q0 83-38 126.5t-110 43.5h-3q-72 0-110-43.5t-38-126.5 38-126.5 110-43.5h3q72 0 110 43.5t38 126.5z" glyph-name="o" horiz-adv-x="553" unicode="&#x6f;"/><glyph d="M155 44v-273h-88v717h64l18-49 32 17q38 20 70 30t64 10q45 0 84.5-18t68-51 45-79.5 16.5-103.5-15.5-103.5-44-79.5-68.5-51-88-18q-32 0-63.5 9t-66.5 28zM155 127q0-9 3-12.5t8-6.5q26-14 61.5-24.5t69.5-10.5q30 0 56 8t44.5 28 29.5 52.5 11 82.5q0 48-10.5 81t-29.5 52.5-44 28-55 8.5q-34 0-70.5-10.5t-62.5-24.5q-5-3-8-6.5t-3-12.5v-233z" glyph-name="p" horiz-adv-x="566" unicode="&#x70;"/><glyph d="M413 361q0 9-2 13t-10 8q-29 15-62.5 24t-64.5 9q-69 0-107.5-42t-38.5-130q0-91 37.5-130.5t103.5-39.5q33 0 70 10t63 24q7 4 9 8t2 12v234zM437 488h64v-717h-88v273l-28-15q-37-20-67.5-28.5t-63.5-8.5q-48 0-88 18t-68.5 51-44.5 79-16 102q0 61 19 108t50 79.5 71 49.5 81 17q34 0 66-10t64-27l33-17z" glyph-name="q" horiz-adv-x="568" unicode="&#x71;"/><glyph d="M149 422q64 42 99 58t60 16q13 0 25.5-3.5t23.5-8.5v-58q-33-7-85-22.5t-107-36.5q-10-4-10-15v-352h-88v488h63z" glyph-name="r" horiz-adv-x="363" unicode="&#x72;"/><glyph d="M392 408l-46 6q-23 3-53 5.5t-53 2.5q-53 0-83-12t-30-43q0-26 23-38t62-24l69-21q39-12 66-24t44-27q37-33 37-91 0-35-13.5-63t-38.5-47.5-59-29.5-74-10q-50 0-106 15t-101 41l22 51 43-11q51-13 84-17.5t58-4.5q103 0 103 76 0 26-18 39.5t-64 27.5l-72 22q-76 23-111 52.5t-35 82.5q0 32 14.5 56t38.5 40q27 18 64 26t76 8q42 0 85.5-8.5t82.5-24.5z" glyph-name="s" horiz-adv-x="464" unicode="&#x73;"/><glyph d="M386 46q-32-23-74.5-38.5t-80.5-15.5q-33 0-59 10t-44 27q-39 37-39 111v280h-92v50l92 17v142h88v-141h174v-68h-174v-277q0-40 17-57t52-17q15 0 35.5 4t48.5 12l35 9z" glyph-name="t" horiz-adv-x="402" unicode="&#x74;"/><glyph d="M419 0l-15 42-31-15q-29-14-61-24.5t-64-10.5q-44 0-80 13.5t-61 37.5q-23 23-35.5 55t-12.5 82v308h88v-304q0-34 6-52t19-31q14-14 38-20t53-6h1q32 0 65.5 8t56.5 19q6 3 7.5 6.5t1.5 9.5v370h88v-488h-64z" glyph-name="u" horiz-adv-x="550" unicode="&#x75;"/><glyph d="M417 478q3 7 5.5 8.5t10.5 1.5h78l-205-488h-77q-8 0-11 2.5t-5 7.5l-208 478h81q7 0 9.5-1.5t5.5-8.5l95-223q9-21 18.5-45t18.5-46.5 16.5-43 12.5-33.5h1q8 25 26 71t39 97z" glyph-name="v" horiz-adv-x="515" unicode="&#x76;"/><glyph d="M706 478q2 6 5 8t11 2h71l-169-488h-81q-14 0-17 10l-69 207q-18 54-33 100.5t-24 78.5q-8-34-21.5-81t-27.5-95l-66-220h-82q-8 0-11.5 2.5t-5.5 7.5l-179 478h79q8 0 10.5-2t4.5-8l79-219q20-56 34-97.5t23-70.5q6 25 17.5 68t27.5 94l73 235h80q7 0 10-1.5t5-7.5l76-220q18-53 32.5-97t22.5-71q6 25 20 70.5t31 96.5z" glyph-name="w" horiz-adv-x="800" unicode="&#x77;"/><glyph d="M410 0q-7 0-10 1.5t-8 6.5l-148 191-137-191q-4-5-7-6.5t-11-1.5h-82l186 255-181 233h86q9 0 12.5-1.5t8.5-7.5l130-169 123 169q4 5 7 7t11 2h81l-171-234 198-254h-88z" glyph-name="x" horiz-adv-x="507" unicode="&#x78;"/><glyph d="M85 488q7 0 9.5-1.5t5.5-8.5l96-223q9-21 18.5-45t18.5-46.5 16.5-43 12.5-33.5h1q8 25 26 71t39 97l90 223q3 7 5.5 8.5t10.5 1.5h76l-300-719-81 18 91 208-215 493h80z" glyph-name="y" horiz-adv-x="514" unicode="&#x79;"/><glyph d="M52 420v68h384v-36q0-9-2-13.5t-7-12.5l-171-228q-29-39-55-71.5l-46-57.5h285v-69h-396v36q0 9 2 13.5t7 12.5l173 228q12 15 25.5 33t27.5 35.5 27 33.5 23 28h-277z" glyph-name="z" horiz-adv-x="473" unicode="&#x7a;"/><glyph d="M703 17q-14-8-35.5-14.5t-39.5-6.5q-13 0-23.5 2t-21 7-22 14-25.5 23l-30 30q-44-38-96.5-60t-113.5-22q-53 0-100 17.5t-82 47.5-56 71-21 88q0 67 40.5 112t102.5 79q-17 25-27 49.5t-10 53.5q0 37 14.5 67.5t39.5 52.5 58.5 33.5 70.5 11.5q34 0 65.5-12t55.5-33 38-50 14-63q0-51-31.5-97.5t-100.5-91.5l140-140q17 24 33.5 52.5t31.5 59.5l51 105 61-21q-20-69-50-133t-72-117l60-60 81-12v-43zM202 345q-18-17-32-32t-23-29-13.5-29.5-4.5-33.5q0-30 12.5-57t35.5-47.5 55.5-32.5 73.5-12q44 0 79.5 14t65.5 40l-181 182-52 52zM361 403q32 33 45 58t13 54q0 35-27 59t-69 24q-45 0-70.5-24.5t-25.5-61.5q0-32 24.5-64t74.5-81z" glyph-name="ampersand" horiz-adv-x="745" unicode="&#x26;"/><glyph d="M683 4q-27-21-61-39.5t-72.5-32.5-80-22.5-83.5-8.5q-75 0-139 25.5t-111 70.5-74 108-27 138q0 71 26 133t72.5 108.5 111.5 73 143 26.5q72 0 133-24.5t104.5-66.5 68-97.5 24.5-118.5q0-48-13.5-85t-36.5-62.5-53.5-39-64.5-13.5q-29 0-51 10.5t-36 26.5l-25-13q-21-11-42-17t-44-6q-26 0-48 8.5t-38.5 23.5-25.5 35.5-9 43.5q0 45 30.5 66t75.5 21q10 0 24-1t29-2 29.5-3 25.5-3v18q0 18-3.5 29.5t-9.5 18.5q-8 9-22 12.5t-32 3.5q-17 0-35-3.5t-36-8.5l-34-10-21 38q31 21 65.5 33.5t67.5 12.5q57 0 93-30.5t36-90.5v-106q0-26 12-38 11-11 32-11 38 0 65 33t27 105q0 55-19.5 99.5t-55 76-83.5 48.5-105 17-107-17.5-87-52-58-84.5-21-114q0-65 21-116t58-86.5 88.5-54.5 113.5-19q43 0 93 11t99 32l72 32zM332 222q-19 0-25-9-7-9-7-23 0-25 18.5-38.5t47.5-13.5q17 0 36.5 4.5t33.5 10.5q5 2 7 4.5t2 8.5v49q0 7-7 7h-106z" glyph-name="at" horiz-adv-x="762" unicode="&#x40;"/><glyph d="M76 98h78q12 0 16-3.5t4-13.5v-81h-98v98zM171 417q0-20-1-41.5t-3-47.5l-15-153h-54l-15 153q-2 26-3 47.5t-1 41.5v246h92v-246z" glyph-name="exclam" horiz-adv-x="250" unicode="&#x21;"/><glyph d="M165.99 389.977h-77.9961q-11.999 0-15.998 3.49902-4 3.5-4 13.5v80.9951h97.9941v-97.9941zM70.9961 70.9961q0 19.998 1 41.4971.999023 21.499 2.99902 47.4971l14.999 152.99h53.9971l14.999-152.99q2-25.998 3-47.4971t1-41.4971v-245.985h-91.9941v245.985z" glyph-name="exclamdown" horiz-adv-x="251" unicode="&#xa1;"/><glyph d="M182 175l-10 61q-2 14-3.5 26t-1.5 19q0 17 6.5 25.5t27.5 20.5l34 19q32 18 56.5 33t40.5 31 24 34 8 42q0 51-35.5 77t-89.5 26q-29 0-58-7t-74-24l-57-21-29 51q48 40 106.5 62.5t115.5 22.5q44 0 83.5-12.5t69-36.5 46.5-58 17-77q0-60-36.5-106t-113.5-81l-54-25-17-102h-56zM162 96h76q12 0 16-3.5t4-13.5v-79h-96v96z" glyph-name="question" horiz-adv-x="496" unicode="&#x3f;"/><glyph d="M311.98 312.98l10-60.9961q2-13.999 3.5-25.998t1.5-18.999q0-16.999-6.5-25.498-6.5-8.5-27.498-20.499l-33.998-18.999q-31.998-17.999-56.4971-32.998-24.498-14.999-40.4971-30.998t-23.999-33.998q-7.99902-17.999-7.99902-41.9971 0-50.9971 35.498-76.9951 35.4971-25.999 89.4941-25.999 28.998 0 57.9961 7 28.999 6.99902 73.9961 23.998l56.9961 20.999 28.998-50.9971q-47.9971-39.9971-106.493-62.4961-58.4961-22.498-115.493-22.498-43.9971 0-83.4941 12.499-39.498 12.499-68.9961 36.4971-29.498 23.999-46.4971 57.9971t-16.999 76.9951q0 59.9961 36.498 105.993 36.4971 45.998 113.492 80.9951l53.9971 24.999 16.999 101.993h55.9961zM331.979 391.977h-75.9951q-11.999 0-15.999 3.49902-4 3.5-4 13.499v78.9961h95.9941v-95.9941z" glyph-name="questiondown" horiz-adv-x="496" unicode="&#xbf;"/><glyph d="M311 321q-12-8-21 5l-74 120-82-132-54 34q-8 5-7.5 10t7.5 12l97 104-138 38 20 53q4 9 8 11t15-3l111-60-16 150h64q9 0 12-3t2-11l-15-136 127 65 21-53q4-9 1-13t-12-6l-122-32 109-118z" glyph-name="asterisk" horiz-adv-x="430" unicode="&#x2a;"/><glyph d="M59 102h80q12 0 16-3.5t4-13.5v-85h-100v102z" glyph-name="period" horiz-adv-x="218" unicode="&#x2e;"/><glyph d="M158 29q0-22-4-39.5t-15-37-31-43.5-53-58l-31 24 61 109q4 7 3 9.5t-6 5.5l-14 9q-8 5-10 9.5t-2 12.5v72h82q12 0 16-3.5t4-13.5v-56z" glyph-name="comma" horiz-adv-x="216" unicode="&#x2c;"/><glyph d="M59 102h80q12 0 16-3.5t4-13.5v-85h-100v102zM59 425h80q12 0 16-3.5t4-13.5v-85h-100v102z" glyph-name="colon" horiz-adv-x="218" unicode="&#x3a;"/><glyph d="M57 425h80q12 0 16-3.5t4-13.5v-85h-100v102zM158 29q0-22-4-39.5t-15-37-31-43.5-53-58l-31 24 61 109q4 7 3 9.5t-6 5.5l-14 9q-8 5-10 9.5t-2 12.5v72h82q12 0 16-3.5t4-13.5v-56z" glyph-name="semicolon" horiz-adv-x="216" unicode="&#x3b;"/><glyph d="M59 102h80q12 0 16-3.5t4-13.5v-85h-100v102zM271 102h80q12 0 16-3.5t4-13.5v-85h-100v102zM483 102h80q12 0 16-3.5t4-13.5v-85h-100v102z" glyph-name="ellipsis" horiz-adv-x="642" unicode="&#x2026;"/><glyph d="M59 330h80q12 0 16-3.5t4-13.5v-85h-100v102z" glyph-name="periodcentered" horiz-adv-x="218" unicode="&#xb7;"/><glyph d="M273 184h-201v194h175q16 0 21-4.5t5-18.5v-171z" glyph-name="bullet" horiz-adv-x="345" unicode="&#x2022;"/><glyph d="M11 0l335 663h91l-335-663h-91z" glyph-name="slash" horiz-adv-x="448" unicode="&#x2f;"/><glyph d="M156 217q0-121 37.5-222t118.5-194l-45-37q-45 40-82.5 89.5t-64 107-41.5 122-15 134.5 15 134.5 41.5 122 64 107 82.5 89.5l45-37q-81-93-118.5-194t-37.5-222z" glyph-name="parenleft" horiz-adv-x="318" unicode="&#x28;"/><glyph d="M81 709h81v-418h-81v418zM81 189h81v-418h-81v418z" glyph-name="brokenbar" horiz-adv-x="243" unicode="&#xa6;"/><glyph d="M162 217q0 121-37.5 222t-118.5 194l45 37q45-40 82.5-89.5t64-107 41.5-122 15-134.5-15-134.5-41.5-122-64-107-82.5-89.5l-45 37q81 93 118.5 194t37.5 222z" glyph-name="parenright" horiz-adv-x="318" unicode="&#x29;"/><glyph d="M78 663h219v-78h-133v-736h133v-78h-219v892z" glyph-name="bracketleft" horiz-adv-x="309" unicode="&#x5b;"/><glyph d="M346 0l-335 663h91l335-663h-91z" glyph-name="backslash" horiz-adv-x="448" unicode="&#x5c;"/><glyph d="M231-229h-219v78h133v736h-133v78h219v-892z" glyph-name="bracketright" horiz-adv-x="302" unicode="&#x5d;"/><glyph d="M42 246q30 6 50 14t32.5 19.5 17.5 27.5 5 38q0 23-4.5 52t-9.5 58.5-9.5 57.5-4.5 48q0 54 34 83t90 29q21 0 47-4.5t46-9.5v-48l-99-15q-19-3-26-10.5t-7-24.5q0-16 4.5-43.5t9.5-58.5 9.5-61.5 4.5-53.5q0-22-5-40t-17-33.5-32-28.5-50-25q30-12 50-25t32-28 17-33 5-40q0-23-4.5-53.5t-9.5-61.5-9.5-58.5-4.5-43.5q0-17 7-24.5t26-10.5l99-15v-48q-20-5-46-9.5t-47-4.5q-56 0-90 29t-34 83q0 20 4.5 48t9.5 57.5 9.5 58.5 4.5 52q0 43-22.5 65.5t-82.5 33.5v57 0z" glyph-name="braceleft" horiz-adv-x="338" unicode="&#x7b;"/><glyph d="M81 709h81v-938h-81v938z" glyph-name="bar" horiz-adv-x="243" unicode="&#x7c;"/><glyph d="M296 189q-60-11-82.5-33.5t-22.5-65.5q0-23 4.5-52t9.5-58.5 9.5-57.5 4.5-48q0-54-34-83t-90-29q-21 0-47 4.5t-46 9.5v48l99 15q19 3 26 10.5t7 24.5q0 16-4.5 43.5t-9.5 58.5-9.5 61.5-4.5 53.5q0 22 5 40t17 33.5 32 28.5 50 25q-30 12-50 25t-32 28-17 33-5 40q0 23 4.5 53.5t9.5 61.5 9.5 58.5 4.5 43.5q0 17-7 24.5t-26 10.5l-99 15v48q20 5 46 9.5t47 4.5q56 0 90-29t34-83q0-20-4.5-48t-9.5-57.5-9.5-58.5-4.5-52q0-22 5-38t17.5-27.5 32.5-19.5 50-14v-57z" glyph-name="braceright" horiz-adv-x="338" unicode="&#x7d;"/><glyph d="M57 207v74h302v-74h-302z" glyph-name="hyphen" horiz-adv-x="416" unicode="&#x2d;"/><glyph d="M57 207v74h302v-74h-302z" glyph-name="uni00AD" horiz-adv-x="416" unicode="&#xad;"/><glyph d="M57 207v74h500v-74h-500z" glyph-name="endash" horiz-adv-x="614" unicode="&#x2013;"/><glyph d="M57 207v74h1000v-74h-1000z" glyph-name="emdash" horiz-adv-x="1114" unicode="&#x2014;"/><glyph d="M14-129v69h440v-69h-440z" glyph-name="underscore" horiz-adv-x="468" unicode="&#x5f;"/><glyph d="M304 352l5-74q2-24 3-47.5t1-46.5v-165q0-24-1-46.5t-3-44.5l-13-157h-46l-13 157q-2 23-3 46t-1 45v165q0 23 1 46.5t3 47.5l5 74-84-7q-34-3-52.5-4t-34.5-1h-32v76h32q16 0 34.5-1t52.5-4l85-7-5 70q-2 32-3.5 60.5t-1.5 49.5v79h80v-80q0-21-1.5-48.5t-3.5-61.5l-4-69 85 7q34 3 52.5 4t34.5 1h32v-76h-32q-16 0-34.5 1t-52.5 4z" glyph-name="dagger" horiz-adv-x="547" unicode="&#x2020;"/><glyph d="M304 84l85 7q34 3 52.5 4t34.5 1h32v-76h-32q-16 0-34.5 1t-52.5 4l-85 7 4-69q2-34 3.5-62.5t1.5-49.5v-80h-80v79q0 21 1.5 50.5t3.5 61.5l5 70-85-7q-34-3-52.5-4t-34.5-1h-32v76h32q16 0 34.5-1t52.5-4l84-7-5 42q-3 24-4 46t-1 45 1 45 4 46l5 42-84-7q-34-3-52.5-4t-34.5-1h-32v76h32q16 0 34.5-1t52.5-4l85-7-5 72q-2 32-3.5 60.5t-1.5 49.5v79h80v-80q0-21-1.5-48.5t-3.5-61.5l-4-71 85 7q34 3 52.5 4t34.5 1h32v-76h-32q-16 0-34.5 1t-52.5 4l-85 7 5-42q3-24 4-46t1-45-1-45-4-46z" glyph-name="daggerdbl" horiz-adv-x="547" unicode="&#x2021;"/><glyph d="M521 192q0-41-20.5-76.5t-47.5-62.5q47-47 47-120 0-38-15-69.5t-43-54-66.5-35.5-85.5-13q-54 0-104 15t-93 39l19 55 47-12q35-9 66-14t59-5q58 0 94.5 23.5t36.5 71.5q0 22-8 38t-22 28-34.5 21.5-44.5 17.5l-66 22q-40 14-73 30t-56.5 37.5-36.5 49-13 63.5q0 40 20 76t48 63q-47 46-47 120 0 37 15 69t43 54.5 66.5 35.5 85.5 13q54 0 104-15t93-39l-19-55-47 12q-35 9-66 14t-59 5q-58 0-94.5-23.5t-36.5-71.5q0-22 8-38t22-28 34.5-21.5 44.5-17.5l66-22q40-14 73-30t56.5-37.5 36.5-49 13-63.5zM397 90q17 22 28.5 46.5t11.5 47.5q0 37-26 62t-95 48l-69 23q-17 6-32.5 12t-29.5 14q-17-22-28.5-46.5t-11.5-47.5q0-19 6-34t20-28 37-24.5 58-23.5l69-23q17-6 32.5-12t29.5-14z" glyph-name="section" horiz-adv-x="582" unicode="&#xa7;"/><glyph d="M229-229v638h-146q-24 0-31.5 8.5t-7.5 28.5v217h483v-68h-86v-824h-72v824h-68v-824h-72z" glyph-name="paragraph" horiz-adv-x="537" unicode="&#xb6;"/><glyph d="M317 189h-61v290h120q29 0 51-6t37-20q11-11 18-27.5t7-37.5q0-30-15-51.5t-40-34.5l66-113h-55q-10 0-14 7l-52 93q-3 4-8 4h-54v-104zM317 343h82q14 0 20 9 10 15 10 35 0 19-11 30-12 11-44 11h-57v-85zM110 332q0-60 19-110t54-86 83.5-56 107.5-20 107.5 20 83.5 56 54 86 19 110-19 110-54 86-83.5 55.5-107.5 19.5-107.5-19.5-83.5-55.5-54-86-19-110zM713 332q0-71-26-133t-72-108.5-107.5-73.5-133.5-27-133.5 27-107.5 73.5-72 108.5-26 133q0 70 26 132.5t72 108.5 107.5 73 133.5 27 133.5-27 107.5-73 72-108.5 26-132.5z" glyph-name="registered" horiz-adv-x="748" unicode="&#xae;"/><glyph d="M507 246q-25-26-59.5-43.5t-71.5-17.5q-31 0-57.5 11t-45.5 30.5-30 47-11 60.5q0 35 11.5 62.5t31 47 46 29.5 55.5 10q42 0 75-23t48-61l-37-26-28 26q-14 14-28.5 20.5t-33.5 6.5q-31 0-53.5-22t-22.5-70q0-39 21-65t65-26q26 0 63 19l39 20zM110 332q0-60 19-110t54-86 83.5-56 107.5-20 107.5 20 83.5 56 54 86 19 110-19 110-54 86-83.5 55.5-107.5 19.5-107.5-19.5-83.5-55.5-54-86-19-110zM713 332q0-71-26-133t-72-108.5-107.5-73.5-133.5-27-133.5 27-107.5 73.5-72 108.5-26 133q0 70 26 132.5t72 108.5 107.5 73 133.5 27 133.5-27 107.5-73 72-108.5 26-132.5z" glyph-name="copyright" horiz-adv-x="748" unicode="&#xa9;"/><glyph d="M178 356h-66v252h-94v55h254v-55h-94v-252zM650 663v-307h-62v198l-82-106h-37q-10 0-14 6l-82 105v-203h-61v307h46q6 0 8.5-1.5t4.5-4.5l112-145 109 145q5 6 15 6h43z" glyph-name="trademark" horiz-adv-x="698" unicode="&#x2122;"/><glyph d="M216 490q0 22 4 39.5t15 37 31 43.5 53 58l31-24-61-109q-4-7-3-9.5t6-5.5l14-9q8-5 10-9.5t2-12.5v-72h-82q-12 0-16 3.5t-4 13.5v56zM53 490q0 22 4 39.5t15 37 31 43.5 53 58l31-24-61-109q-4-7-3-9.5t6-5.5l14-9q8-5 10-9.5t2-12.5v-72h-82q-12 0-16 3.5t-4 13.5v56z" glyph-name="quotedblleft" horiz-adv-x="383" unicode="&#x201c;"/><glyph d="M167 590q0-22-4-39.5t-15-37-31-43.5-53-58l-31 24 61 109q4 7 3 9.5t-6 5.5l-14 9q-8 5-10 9.5t-2 12.5v72h82q12 0 16-3.5t4-13.5v-56zM330 590q0-22-4-39.5t-15-37-31-43.5-53-58l-31 24 61 109q4 7 3 9.5t-6 5.5l-14 9q-8 5-10 9.5t-2 12.5v72h82q12 0 16-3.5t4-13.5v-56z" glyph-name="quotedblright" horiz-adv-x="383" unicode="&#x201d;"/><glyph d="M53 490q0 22 4 39.5t15 37 31 43.5 53 58l31-24-61-109q-4-7-3-9.5t6-5.5l14-9q8-5 10-9.5t2-12.5v-72h-82q-12 0-16 3.5t-4 13.5v56z" glyph-name="quoteleft" horiz-adv-x="220" unicode="&#x2018;"/><glyph d="M167 590q0-22-4-39.5t-15-37-31-43.5-53-58l-31 24 61 109q4 7 3 9.5t-6 5.5l-14 9q-8 5-10 9.5t-2 12.5v72h82q12 0 16-3.5t4-13.5v-56z" glyph-name="quoteright" horiz-adv-x="220" unicode="&#x2019;"/><glyph d="M301 85l-39-39-205 164q-5 5-7 8t-2 11v44l214 171 39-39-162-159v-1zM547 85l-39-39-205 164q-5 5-7 8t-2 11v44l214 171 39-39-162-159v-1z" glyph-name="guillemotleft" horiz-adv-x="600" unicode="&#xab;"/><glyph d="M299 405l39 39 205-164q5-5 7-8t2-11v-44l-214-171-39 39 162 159v1zM53 405l39 39 205-164q5-5 7-8t2-11v-44l-214-171-39 39 162 159v1z" glyph-name="guillemotright" horiz-adv-x="600" unicode="&#xbb;"/><glyph d="M301 85l-39-39-205 164q-5 5-7 8t-2 11v44l214 171 39-39-162-159v-1z" glyph-name="guilsinglleft" horiz-adv-x="354" unicode="&#x2039;"/><glyph d="M53 405l39 39 205-164q5-5 7-8t2-11v-44l-214-171-39 39 162 159v1z" glyph-name="guilsinglright" horiz-adv-x="354" unicode="&#x203a;"/><glyph d="M158-9q0-22-4-39.5t-15-37-31-43.5-53-58l-31 24 61 109q4 7 3 9.5t-6 5.5l-14 9q-8 5-10 9.5t-2 12.5v72h82q12 0 16-3.5t4-13.5v-56z" glyph-name="quotesinglbase" horiz-adv-x="216" unicode="&#x201a;"/><glyph d="M158-9q0-22-4-39.5t-15-37-31-43.5-53-58l-31 24 61 109q4 7 3 9.5t-6 5.5l-14 9q-8 5-10 9.5t-2 12.5v72h82q12 0 16-3.5t4-13.5v-56zM321-9q0-22-4-39.5t-15-37-31-43.5-53-58l-31 24 61 109q4 7 3 9.5t-6 5.5l-14 9q-8 5-10 9.5t-2 12.5v72h82q12 0 16-3.5t4-13.5v-56z" glyph-name="quotedblbase" horiz-adv-x="379" unicode="&#x201e;"/><glyph d="M308 515q0 41-20 63-23 25-70 25-41 0-92-18l-43-16-24 45q42 29 83.5 44t81.5 15q36 0 68.5-11.5t55.5-35.5q18-19 28-45t10-64v-188l52-10v-41q-13-6-29-10t-30-4q-44 0-63 36l-20-10q-64-32-111-32-31 0-57.5 10t-46 27.5-31 41.5-11.5 53q0 57 37 82t98 25h8q24 0 60.5-2.5t65.5-6.5v27zM308 430q0 7-8 7h-143q-20 0-31-10t-11-34q0-31 22-49.5t62-18.5q23 0 52 8t48 16q9 4 9 14v67z" glyph-name="ordfeminine" horiz-adv-x="473" unicode="&#xaa;"/><glyph d="M437 466q0-48-16-86t-43.5-65-64-41.5-77.5-14.5-77.5 14.5-64 41.5-43.5 65-16 86 16 86 43.5 65 64 41.5 77.5 14.5 77.5-14.5 64-41.5 43.5-65 16-86zM356 466q0 60-30 97t-90 37-90-37-30-97 30-97 90-37 90 37 30 97z" glyph-name="ordmasculine" horiz-adv-x="472" unicode="&#xba;"/><glyph d="M264 469l39-39-133-149h545v-71h-546l134-152-39-39-200 200v39q0 12 7 19z" glyph-name="arrowleft" horiz-adv-x="779" unicode="&#x2190;"/><glyph d="M615 369l-39-39-147 133v-545h-76v546l-150-134-38 39 199 200h39q8 0 11-1t8-6z" glyph-name="arrowup" horiz-adv-x="779" unicode="&#x2191;"/><glyph d="M515 22l-39 39 133 149h-545v71h546l-134 152 39 39 200-200v-39q0-7-1-10.5t-6-8.5z" glyph-name="arrowright" horiz-adv-x="779" unicode="&#x2192;"/><glyph d="M165 118l38 39 147-133v545h76v-546l150 134 39-38-200-201h-39q-7 0-10.5 1.5t-8.5 6.5z" glyph-name="arrowdown" horiz-adv-x="779" unicode="&#x2193;"/><glyph d="M564 331q0-75-17.5-137.5t-51-107.5-81.5-70.5-108-25.5-108 25.5-81.5 70.5-51 107.5-17.5 137.5 17.5 137.5 51 108 81.5 71 108 25.5 108-25.5 81.5-71 51-108 17.5-137.5zM472 331q0 120-39 189t-127 69-127-69-39-189 39-188.5 127-68.5 127 68.5 39 188.5z" glyph-name="zero" unicode="&#x30;"/><glyph d="M111 74h178v494q-5-3-15-7.5t-22.5-10-26.5-11.5-27-10l-82-29-26 61 202 94q10 5 18 6.5t21 1.5h47v-589h150v-74h-417v74z" glyph-name="one" unicode="&#x31;"/><glyph d="M524 77v-77h-444v46q0 10 2.5 15t10.5 14l196 206q30 31 54 57t40.5 49.5 25.5 46 9 46.5q0 57-35.5 84.5t-91.5 27.5q-31 0-62-8t-68-22l-60-23-29 51q53 39 111 61t115 22q43 0 82-13t67.5-37.5 45.5-59.5 17-78q0-33-9-61t-28.5-57.5-50.5-63-75-76.5l-153-150h330z" glyph-name="two" unicode="&#x32;"/><glyph d="M342 371q17 0 26 3t19 14q14 16 23 43.5t9 52.5q0 55-33.5 81.5t-87.5 26.5q-35 0-68-8t-74-23l-57-21-29 52q58 39 116 60t117 21q43 0 80.5-12.5t65-35 43.5-54 16-69.5q0-78-67-154 46-21 70-60t24-90q0-48-17.5-86.5t-48.5-65.5-73.5-41.5-92.5-14.5q-71 0-137.5 25t-119.5 68l29 49 71-27q41-16 78-24.5t73-8.5q66 0 106 34t40 94q0 52-26 77-14 13-35.5 19.5t-53.5 6.5h-72q-9 0-12 2.5t-3 9.5v56h101z" glyph-name="three" unicode="&#x33;"/><glyph d="M388 240v321q-3-5-12-17t-20.5-27-23.5-31-22-29l-112-142q-17-22-35.5-42.5t-29.5-32.5h255zM368 650q7 8 11.5 10.5t14.5 2.5h82v-423h94v-75h-94v-165h-88v165h-346v58q0 10 2 15t9 14z" glyph-name="four" unicode="&#x34;"/><glyph d="M113 327q-8 5-10 9t-2 12v315h386v-77h-301v-105q0-29-1-57t-3-47q29 15 68.5 22.5t74.5 7.5q46 0 84.5-14t67-40.5 44.5-63 16-81.5q0-44-14.5-83.5t-43.5-69.5-72-47.5-100-17.5q-62 0-126.5 23.5t-114.5 64.5l30 51 57-22q45-17 81-26t68-9q70 0 106.5 36.5t36.5 102.5q0 65-40 93t-106 28q-16 0-34.5-2t-36.5-5.5-34-8-27-8.5q-8-3-12.5-3t-14.5 6z" glyph-name="five" unicode="&#x35;"/><glyph d="M493 577q-41 11-71 15t-55 4q-51 0-89-18t-64.5-49-40.5-73.5-17-90.5l26 10q52 20 89.5 30t74.5 10q43 0 82-13t67.5-38.5 45.5-63 17-86.5q0-54-19.5-96t-52-70.5-74-43-85.5-14.5q-56 0-104 21.5t-83 62-55 99-20 131.5v5q0 78 21 144.5t59 115.5 92.5 76.5 122.5 27.5q41 0 80-11.5t74-29.5zM156 276q0-43 11.5-80.5t33.5-65.5 54-44 73-16q66 0 103.5 37.5t37.5 106.5q0 60-34.5 93t-107.5 33q-38 0-79.5-9t-73.5-25q-14-7-16-12.5t-2-14.5v-3z" glyph-name="six" unicode="&#x36;"/><glyph d="M185 0q1 43 6 81t16.5 75.5 30.5 78 48 88.5l71 118q29 48 52 84t38 59h-383v79h483v-45q0-12-3-21t-11-23l-139-233q-36-61-58-106t-34.5-83-17.5-74-7-78h-92z" glyph-name="seven" unicode="&#x37;"/><glyph d="M165 364q-36 26-57.5 58.5t-21.5 76.5q0 40 18.5 72.5t49.5 55 71 34.5 82 12q44 0 85-12.5t72-35 49.5-54.5 18.5-71q0-45-26.5-86t-68.5-74q26-12 48.5-26.5t39.5-33 26.5-41.5 9.5-53q0-39-19.5-74.5t-53.5-62.5-81-43-102-16q-52 0-98 14.5t-80.5 41-55 63.5-20.5 82q0 27 9 52t24.5 47 36.5 40.5 44 33.5zM471 184q0 25-14.5 43.5t-43 35-72.5 32-102 34.5q-12 4-18 2t-16-10q-30-25-47.5-54.5t-17.5-64.5q0-60 46-96t123-36q34 0 63.5 8.5t51.5 23.5 34.5 36 12.5 46zM169 501q0-25 12-43t35.5-32.5 58-27.5 80.5-27q12-4 16-3.5t14 7.5q12 9 23 21t20 26 14.5 29.5 5.5 31.5q0 56-39.5 83.5t-102.5 27.5q-28 0-53-6t-43.5-18-29.5-29.5-11-39.5z" glyph-name="eight" unicode="&#x38;"/><glyph d="M121 88q39-11 73-14.5t56-3.5q53 0 90 16t61 46 36 72 15 94l-26-11q-41-17-84-28t-80-11q-44 0-83 14t-67.5 40-45 63.5-16.5 85.5q0 46 16.5 86.5t47 70.5 73 47.5 94.5 17.5q56 0 104-21.5t83-62 55-99 20-131.5v-5q0-92-23-168t-74-126q-34-33-79.5-51.5t-106.5-18.5q-38 0-83 11t-77 31zM453 387q0 43-11.5 80.5t-34 65.5-54.5 44-73 16q-65 0-103-38t-38-100 35-97 107-35q38 0 80 9t74 25q14 7 16 12t2 15v3z" glyph-name="nine" unicode="&#x39;"/><glyph d="M154 93q35-8 67.5-14t60.5-8v250l-25 9q-43 15-76.5 32t-57 37.5-35.5 47-12 61.5q0 37 15.5 66.5t42.5 50.5 65 32.5 83 14.5l8 106h50v-106q42-3 87-13t86-26l-15-59-60 8q-25 3-50 5.5t-48 3.5v-202q52-17 90.5-35.5t64-42 38-53.5 12.5-70q0-83-54.5-135.5t-150.5-60.5l-8-108h-50v107q-58 4-116.5 21.5t-99.5 41.5l23 54zM458 187q0 21-6 37.5t-20 29.5-36.5 24-55.5 23v-228q58 7 88 36.5t30 77.5zM161 511q0-18 6.5-31.5t20.5-25 37.5-22.5 56.5-23v182q-60-3-90.5-22t-30.5-58z" glyph-name="dollar" unicode="&#x24;"/><glyph d="M293-6q-49 4-88.5 24.5t-67 54-42.5 77.5-15 96q0 51 16 95t44.5 77 67.5 53 85 24l8 107h46v-109q61-9 107.5-47t63.5-95l-56-29-35 33q-23 22-41.5 35.5t-38.5 19.5v-336q42 4 98 30l55 25 30-46q-39-35-86.5-59t-96.5-30l-8-110h-46v110zM171 248q0-78 31.5-120.5t90.5-52.5v341q-54-5-88-48.5t-34-119.5z" glyph-name="cent" unicode="&#xa2;"/><glyph d="M102 414q9 58 31.5 105.5t56.5 81.5 77 53 94 19q74 0 131-40.5t87-106.5l-53-32-49 46q-29 27-54.5 40.5t-62.5 13.5q-63 0-109-44t-59-134h210v-59h-216q-1-8-1-14v-13-18t1-16h216v-60h-207q12-78 59.5-122t117.5-44q61 0 124 35l54 30 34-41q-40-48-99.5-76t-120.5-28q-51 0-95 17.5t-78 50-56.5 78-30.5 101.5h-76v48l69 9q-1 10-1.5 18.5t-.5 19.5v12.5t1 12.5h-68v48z" glyph-name="Euro" unicode="&#x20ac;"/><glyph d="M337-52q0-50-11.5-81.5t-32.5-54.5q-24-26-59-39t-77-13q-30 0-60.5 7t-56.5 21l14 51q26-4 49-6t40-2q58 0 83 27.5t25 88.5v313h-110v48l110 15v162q0 50 11.5 81.5t32.5 54.5q24 26 59 39t77 13q30 0 60.5-7t56.5-21l-14-51q-26 4-49 6t-40 2q-58 0-83-27.5t-25-88.5v-161h165v-65h-165v-312z" glyph-name="florin" unicode="&#x192;"/><glyph d="M552 0h-465v48q0 10 1.5 14.5t9.5 13.5l29 36q24 30 32 49t8 40q0 17-6 41.5t-15 53.5h-94v49l76 11q-9 32-15.5 63t-6.5 60q0 44 15.5 80t43 61.5 66 39 85.5 13.5q73 0 135-35.5t97-92.5l-49-40-51 37q-32 23-64 36.5t-70 13.5q-56 0-89-28.5t-33-85.5q0-26 6.5-56.5t16.5-61.5h207v-64h-188q18-57 18-92 0-32-16.5-60t-52.5-69h369v-75z" glyph-name="sterling" unicode="&#xa3;"/><glyph d="M377 265h119v-60h-144v-39h144v-60h-144v-106h-91v106h-142v60h142v39h-142v60h116l-225 398h87q11 0 16-9l108-194q13-23 25.5-47t24-47l21.5-43t16-35h1q14 32 36.5 76.5t50.5 95.5l107 194q5 9 16 9h82z" glyph-name="yen" unicode="&#xa5;"/><glyph d="M425 663h75l-34-192h86v-71h-99l-25-138h124v-71h-136l-33-191h-75l33 191h-122l-33-191h-75l33 191h-84v71h97l24 138h-121v71h134l34 192h75l-34-192h122zM232 262h121l25 138h-122z" glyph-name="numbersign" unicode="&#x23;"/><glyph d="M384 501q0-38-13-69.5t-36-54-54-35.5-67-13h-2q-36 0-67 13t-54 35.5-36 54-13 69.5q0 37 13 69t36 54.5 54 35.5 67 13h2q36 0 67-13t54-35.5 36-54.5 13-69zM307 501q0 51-24.5 74.5t-68.5 23.5h-2q-44 0-68.5-23.5t-24.5-74.5 24.5-74.5 68.5-23.5h2q44 0 68.5 23.5t24.5 74.5zM843 162q0-38-13-69.5t-36-54-54-35.5-67-13h-2q-36 0-67 13t-54 35.5-36 54-13 69.5q0 37 13 69t36 54.5 54 35.5 67 13h2q36 0 67-13t54-35.5 36-54.5 13-69zM766 162q0 51-24.5 74.5t-68.5 23.5h-2q-44 0-68.5-23.5t-24.5-74.5 24.5-74.5 68.5-23.5h2q44 0 68.5 23.5t24.5 74.5zM237 0l329 663h81l-328-663h-82z" glyph-name="percent" horiz-adv-x="885" unicode="&#x25;"/><glyph d="M384 501q0-38-13-69.5t-36-54-54-35.5-67-13h-2q-36 0-67 13t-54 35.5-36 54-13 69.5q0 37 13 69t36 54.5 54 35.5 67 13h2q36 0 67-13t54-35.5 36-54.5 13-69zM307 501q0 51-24.5 74.5t-68.5 23.5h-2q-44 0-68.5-23.5t-24.5-74.5 24.5-74.5 68.5-23.5h2q44 0 68.5 23.5t24.5 74.5zM843 162q0-38-13-69.5t-36-54-54-35.5-67-13h-2q-36 0-67 13t-54 35.5-36 54-13 69.5q0 37 13 69t36 54.5 54 35.5 67 13h2q36 0 67-13t54-35.5 36-54.5 13-69zM766 162q0 51-24.5 74.5t-68.5 23.5h-2q-44 0-68.5-23.5t-24.5-74.5 24.5-74.5 68.5-23.5h2q44 0 68.5 23.5t24.5 74.5zM1228 162q0-38-13-69.5t-36-54-54-35.5-67-13h-2q-36 0-67 13t-54 35.5-36 54-13 69.5q0 37 13 69t36 54.5 54 35.5 67 13h2q36 0 67-13t54-35.5 36-54.5 13-69zM1151 162q0 51-24.5 74.5t-68.5 23.5h-2q-44 0-68.5-23.5t-24.5-74.5 24.5-74.5 68.5-23.5h2q44 0 68.5 23.5t24.5 74.5zM237 0l329 663h81l-328-663h-82z" glyph-name="perthousand" horiz-adv-x="1270" unicode="&#x2030;"/><glyph d="M230 435h71v-154h155v-71h-155v-155h-71v155h-154v71h154v154z" glyph-name="plus" horiz-adv-x="532" unicode="&#x2b;"/><glyph d="M456 281v-71h-380v71h380z" glyph-name="minus" horiz-adv-x="532" unicode="&#x2212;"/><glyph d="M108 354l50 50 109-109 110 110 50-50-110-110 110-110-50-50-110 110-109-109-50 50 109 109z" glyph-name="multiply" horiz-adv-x="536" unicode="&#xd7;"/><glyph d="M456 451v-82l-276-123v-1l276-123v-82l-380 176v59z" glyph-name="less" horiz-adv-x="532" unicode="&#x3c;"/><glyph d="M456 281v-71h-380v71h380zM313 40h-94v94h77q11 0 14-3.5t3-11.5v-79zM313 357h-94v94h77q11 0 14-3.5t3-11.5v-79z" glyph-name="divide" horiz-adv-x="532" unicode="&#xf7;"/><glyph d="M456 374v-71h-380v71h380zM456 188v-71h-380v71h380z" glyph-name="equal" horiz-adv-x="532" unicode="&#x3d;"/><glyph d="M456 374v-257h-71v186h-309v71h380z" glyph-name="logicalnot" horiz-adv-x="532" unicode="&#xac;"/><glyph d="M456 275v-59l-380-176v82l276 123v1l-276 123v82z" glyph-name="greater" horiz-adv-x="532" unicode="&#x3e;"/><glyph d="M456 188v-71h-217l-42-93-53 21 33 72h-101v71h133l53 115h-186v71h218l42 91 52-21-32-70h100v-71h-132l-53-115h185z" glyph-name="notequal" horiz-adv-x="532" unicode="&#x2260;"/><glyph d="M468 384q-13-46-47-75t-76-29q-23 0-43.5 7t-40.5 15-38.5 15-36.5 7q-26 0-42.5-11t-32.5-36l-48 17q13 46 47 75t76 29q22 0 43-7t41-15 38.5-15 36.5-7q26 0 42.5 11t32.5 36zM468 195q-13-46-47-75t-76-29q-23 0-43.5 7t-40.5 15.5-38.5 15.5-36.5 7q-26 0-42.5-11.5t-32.5-35.5l-48 17q13 46 47 75t76 29q22 0 43-7t41-15.5 38.5-15.5 36.5-7q26 0 42.5 11.5t32.5 35.5z" glyph-name="approxequal" horiz-adv-x="532" unicode="&#x2248;"/><glyph d="M230 492h71v-134h155v-71h-155v-135h-71v135h-154v71h154v134zM456 71v-71h-380v71h380z" glyph-name="plusminus" horiz-adv-x="532" unicode="&#xb1;"/><glyph d="M456 492v-78l-261-93v-1l261-93v-78l-380 142v60zM456 71v-71h-380v71h380z" glyph-name="lessequal" horiz-adv-x="532" unicode="&#x2264;"/><glyph d="M456 351v-60l-380-142v78l261 93v1l-261 93v78zM456 71v-71h-380v71h380z" glyph-name="greaterequal" horiz-adv-x="532" unicode="&#x2265;"/><glyph d="M463 453l-61-41-136 179h-1l-136-179-60 41 165 220h64z" glyph-name="asciicircum" horiz-adv-x="532" unicode="&#x5e;"/><glyph d="M468 384q-13-46-47-75t-76-29q-23 0-43.5 7t-40.5 15-38.5 15-36.5 7q-26 0-42.5-11t-32.5-36l-48 17q13 46 47 75t76 29q22 0 43-7t41-15 38.5-15 36.5-7q26 0 42.5 11t32.5 36z" glyph-name="asciitilde" horiz-adv-x="532" unicode="&#x7e;"/><glyph d="M483 332l-175 254-175-254 175-256zM277 0q-7 0-9.5 1.5t-6.5 6.5l-204 297q-11 16-11 27 0 9 11 26l210 305h72q7 0 10-1.5t7-7.5l203-296q11-17 11-26 0-11-11-27l-209-305h-73z" glyph-name="lozenge" horiz-adv-x="617" unicode="&#x25ca;"/><glyph d="M53 507q0 37 13 67.5t36 52.5 54 34 67 12 67-12 54-34 36-52.5 13-67.5-13-67.5-36-52.5-54-34-67-12-67 12-54 34-36 52.5-13 67.5zM317 507q0 45-24.5 71t-69.5 26-69.5-26-24.5-71 24.5-71 69.5-26 69.5 26 24.5 71z" glyph-name="degree" horiz-adv-x="446" unicode="&#xb0;"/><glyph d="M142 401h-54l-13 122q-3 32-4.5 53.5t-1.5 42.5v44h92v-44q0-21-1.5-43t-4.5-53z" glyph-name="quotesingle" horiz-adv-x="230" unicode="&#x27;"/><glyph d="M142 401h-54l-13 122q-3 32-4.5 53.5t-1.5 42.5v44h92v-44q0-21-1.5-43t-4.5-53zM307 401h-54l-13 122q-3 32-4.5 53.5t-1.5 42.5v44h92v-44q0-21-1.5-43t-4.5-53z" glyph-name="quotedbl" horiz-adv-x="395" unicode="&#x22;"/><glyph d="M653 783q4 10 15 10h77l-323-793h-73q-12 0-16 10l-175 409h-97v69h148q7 0 9.5-2t5.5-8l111-266q14-34 26-65.5t20-57.5h1q15 52 43 123z" glyph-name="radical" horiz-adv-x="724" unicode="&#x221a;"/><glyph d="M508 331q0-62-27-107l74-74-56-56-71 70q-51-39-120-39t-120 39l-71-70-56 56 74 74q-27 45-27 107t27 107l-74 74 56 56 71-70q51 39 120 39t120-39l71 70 56-56-74-74q27-45 27-107zM427 331q0 60-30.5 96t-88.5 36-88.5-36-30.5-96 30.5-96 88.5-36 88.5 36 30.5 96z" glyph-name="currency" horiz-adv-x="616" unicode="&#xa4;"/><glyph d="M362 217q-24-42-59-65.5t-83-23.5q-38 0-68.5 16.5t-52.5 44-34 64-12 77.5 12 77 34 63 52.5 43 68.5 16q43 0 80-23.5t69-64.5q24 42 59 65.5t83 23.5q37 0 68-16.5t53-44 34-64.5 12-77q0-41-12-77t-34-63-53-43-68-16q-43 0-80 23.5t-69 64.5zM219 206q21 0 37.5 10.5t30 30.5 25.5 49 25 66q4 14 0 21-8 13-20 26t-26.5 23-31 16.5-32.5 6.5q-43 0-69-33t-26-93q0-25 5-47t16-39 27-27 39-10zM512 452q-21 0-37.5-10.5t-30-30.5-25.5-49-25-66q-4-14 0-21 8-13 20-26t26.5-23 31-16.5 32.5-6.5q43 0 69 33t26 93q0 25-5 47t-16 39-27.5 27-38.5 10z" glyph-name="infinity" horiz-adv-x="731" unicode="&#x221e;"/><glyph d="M67 488h88v-304q0-34 6-52t19-31q14-14 38-20t53-6h1q32 0 65.5 8t56.5 19q6 3 7.5 6.5t1.5 9.5v370h88v-416l71-13v-45q-15-7-35-11.5t-39-4.5q-27 0-46 12t-30 32l-29-14q-35-17-66-26.5t-63-9.5q-29 0-54.5 7t-44.5 20v-248h-88v717z" glyph-name="uni00B5" horiz-adv-x="584" unicode="&#xb5;"/><glyph d="M457 279q0 9-2.5 14.5t-11.5 10.5q-32 16-74 25t-80 9q-73 0-106-33.5t-33-90.5q0-66 36-104t102-38q41 0 72.5 16.5t53 44.5 32.5 65 11 78v3zM102 632q35 18 74 29.5t80 11.5q67 0 122-27.5t93-76.5 59-115.5 21-144.5v-5q0-73-20-131.5t-55-99-83-62-104-21.5q-44 0-85.5 14.5t-73.5 43-51.5 70.5-19.5 96q0 49 16.5 86.5t45.5 63 67 38.5 82 13q37 0 76-10t88-30l23-9q-3 47-17 88.5t-39.5 72.5-63 49-88.5 18q-25 0-54.5-4t-70.5-15z" glyph-name="partialdiff" horiz-adv-x="619" unicode="&#x2202;"/><glyph d="M35 663h514v-77h-393l317-353v-34l-311-352h400v-76h-523v44q0 10 2 15t10 14l331 372-335 373q-8 9-10 14t-2 16v44z" glyph-name="summation" horiz-adv-x="595" unicode="&#x2211;"/><glyph d="M500 586h-253v-815h-91v815h-125v77h685v-77h-125v-815h-91v815z" glyph-name="product" horiz-adv-x="747" unicode="&#x220f;"/><glyph d="M172-162q20-4 40.5-6.5t39.5-2.5q54 0 81 26t27 82q0 41-12.5 85.5t-32 91-41.5 94.5-41.5 96-32 95-12.5 93q0 39 12 72t35 57.5 56 38 74 13.5q30 0 57-7t53-20l-15-51q-20 4-40.5 6.5t-39.5 2.5q-54 0-81-26t-27-82q0-42 12.5-86.5t32-91 41.5-94.5 41.5-95.5 32-95 12.5-92.5q0-39-12-72t-35-57.5-56-38-74-13.5q-31 0-57.5 6.5t-53.5 20.5z" glyph-name="integral" horiz-adv-x="630" unicode="&#x222b;"/><glyph d="M356 673q63 0 121-22.5t102-63 70.5-96 26.5-121.5q0-40-8.5-74.5t-28.5-69-52.5-71.5-80.5-82h159v-73h-254v48q0 13 1 16.5t9 11.5l61 72q42 48 70.5 99.5t28.5 112.5q0 54-18.5 95.5t-49.5 70-71.5 43-85.5 14.5-86-15-71.5-43.5-49-70-18.5-94.5q0-61 29-113t70-99l62-72q7-8 8-11.5t1-16.5v-48h-253v73h163q-48 43-81 79t-54 70.5-30 70-9 77.5q0 66 26 121.5t70.5 96 102 63 120.5 22.5z" glyph-name="Ohm" horiz-adv-x="725" unicode="&#x2126;"/><glyph d="M430 77q22 0 51.5-.5t50.5-2.5q-4 7-10 19.5t-12.5 28-13.5 32-13 31.5l-81 203q-9 22-20 49t-21.5 53.5-20 51-15.5 41.5q-5-17-14.5-42t-20-52-20.5-53-17-45l-89-232q-8-20-18-45.5t-18-39.5q21 2 50.5 2.5t51.5.5h200zM625 0h-588v49q0 14 1.5 21.5t7.5 21.5l229 571h90q8 0 11.5-2.5t5.5-8.5l234-559q6-14 7.5-21.5t1.5-21.5v-50z" glyph-name="glyph161" horiz-adv-x="673" unicode="&#x2206;"/><glyph d="M243 14q-15-7-40-12t-45-5q-42 0-66 24t-24 71v617h88v-637l87-14v-44z" glyph-name="litre" horiz-adv-x="250" unicode="&#x2113;"/><glyph d="M201 323q-8 0-8-6v-187q0-7 3-11t9-10q44-45 104.5-71.5t129.5-26.5q74 0 136.5 30t107.5 80h56q-54-60-132-95.5t-169-35.5q-79 0-149 26.5t-122 72.5-82 108.5-30 133.5 30 133.5 82 109 122 73 149 26.5q78 0 147-26.5t120.5-73 82-109 30.5-133.5v-8h-617zM679 537q0 6-3.5 11t-9.5 11q-42 44-101.5 69t-125.5 25q-69 0-129-26t-105-71q-6-6-9-11t-3-13v-185q0-5 8-5h470q8 0 8 5v190z" glyph-name="estimated" horiz-adv-x="873" unicode="&#x212e;"/><glyph d="M1059 505q0-39-14-69.5t-37-52.5-53.5-33.5-63.5-11.5-63.5 11.5-53.5 33-36.5 52.5-13.5 70 13.5 70 37 53 53.5 33.5 63 11.5 63.5-11.5 53.5-33 37-53 14-70.5zM983 505q0 49-25.5 72.5t-66.5 23.5q-42 0-66.5-23t-24.5-73q0-49 24.5-72.5t66.5-23.5 67 23 25 73zM162 0h-89v663h64q8 0 12-1.5t10-8.5l286-358q17-21 34.5-43t33.5-43 29.5-38.5 22.5-29.5v522h89v-663h-63q-8 0-12 1.5t-10 8.5l-286 358q-17 21-34.5 43.5t-34 43.5-30.5 39-22 29v-523z" glyph-name="numero" horiz-adv-x="1086" unicode="&#x2116;"/><glyph d="M-10 0l329 663h81l-328-663h-82z" glyph-name="fraction" horiz-adv-x="390" unicode="&#x2044;"/><glyph d="M173 392v208q-5-4-14.5-8.5t-22.5-9.5l-46-15-20 48 114 49q8 3 11.5 4t9.5 1h35v-277h74v-56h-231v56h90z" glyph-name="onesuperior" horiz-adv-x="396" unicode="&#xb9;"/><glyph d="M315 393v-57h-237v36q0 8 1 10t6 7l103 103q25 25 36.5 43t11.5 36q0 20-13.5 31.5t-36.5 11.5q-17 0-33.5-4.5t-39.5-12.5l-27-10-21 40q27 20 59.5 33t64.5 13q53 0 84.5-28.5t31.5-72.5q0-32-18.5-59t-62.5-67l-59-53h150z" glyph-name="twosuperior" horiz-adv-x="396" unicode="&#xb2;"/><glyph d="M131 404q18-7 34-11t32-4q27 0 42 13t15 39q0 16-8 24-7 7-17 9t-27 2h-34q-9 0-9 8v41h64q10 0 15 7 5 8 7.5 18.5t2.5 18.5q0 22-13.5 33.5t-37.5 11.5q-16 0-31-3.5t-32-10.5l-35-13-22 40q29 20 61 33t63 13q22 0 42.5-6.5t36.5-18.5 25-29.5 9-39.5q0-40-33-73 43-22 43-70 0-51-34.5-78.5t-88.5-27.5q-38 0-74.5 15t-62.5 38l22 38z" glyph-name="threesuperior" horiz-adv-x="396" unicode="&#xb3;"/><glyph d="M247 0l329 663h81l-328-663h-82zM175 386v208q-5-4-14.5-8.5t-22.5-9.5l-46-15-20 48 114 49q8 3 11.5 4t9.5 1h35v-277h74v-56h-231v56h90zM800 57v-57h-237v36q0 8 1 10t6 7l103 103q25 25 36.5 43t11.5 36q0 20-13.5 31.5t-36.5 11.5q-17 0-33.5-4.5t-39.5-12.5l-27-10-21 40q27 20 59.5 33t64.5 13q53 0 84.5-28.5t31.5-72.5q0-32-18.5-59t-62.5-67l-59-53h150z" glyph-name="onehalf" horiz-adv-x="880" unicode="&#xbd;"/><glyph d="M501 112q0 8 1.5 11.5t6.5 11.5l154 187q6 8 9.5 9.5t11.5 1.5h59v-200h53v-55h-53v-78h-67v78h-175v34zM676 262q-4-7-11.5-17.5t-15.5-20.5l-47-58q-7-8-15.5-18t-13.5-15h103v129zM249 0l329 663h81l-328-663h-82zM175 386v208q-5-4-14.5-8.5t-22.5-9.5l-46-15-20 48 114 49q8 3 11.5 4t9.5 1h35v-277h74v-56h-231v56h90z" glyph-name="onequarter" horiz-adv-x="881" unicode="&#xbc;"/><glyph d="M501 112q0 8 1.5 11.5t6.5 11.5l154 187q6 8 9.5 9.5t11.5 1.5h59v-200h53v-55h-53v-78h-67v78h-175v34zM676 262q-4-7-11.5-17.5t-15.5-20.5l-47-58q-7-8-15.5-18t-13.5-15h103v129zM243 0l329 663h81l-328-663h-82zM141 398q18-7 34-11t32-4q27 0 42 13t15 39q0 16-8 24-7 7-17 9t-27 2h-34q-9 0-9 8v41h64q10 0 15 7 5 8 7.5 18.5t2.5 18.5q0 22-13.5 33.5t-37.5 11.5q-16 0-31-3.5t-32-10.5l-35-13-22 40q29 20 61 33t63 13q22 0 42.5-6.5t36.5-18.5 25-29.5 9-39.5q0-40-33-73 43-22 43-70 0-51-34.5-78.5t-88.5-27.5q-38 0-74.5 15t-62.5 38l22 38z" glyph-name="threequarters" horiz-adv-x="881" unicode="&#xbe;"/><glyph d="M76 656l40 59q5 7 8.5 7.5t10.5-4.5l187-139-30-40z" glyph-name="grave" horiz-adv-x="398" unicode="&#x60;"/><glyph d="M106 539l-30 40 187 139q7 5 10.5 4.5t8.5-7.5l40-59z" glyph-name="acute" horiz-adv-x="398" unicode="&#xb4;"/><glyph d="M153 571h-98v96h80q11 0 14.5-3t3.5-12v-81zM342 571h-98v96h80q11 0 14.5-3t3.5-12v-81z" glyph-name="dieresis" horiz-adv-x="398" unicode="&#xa8;"/><glyph d="M328 541l-128 102h-1l-129-102-36 35 126 127q8 8 12 9.5t14 1.5h25q10 0 14-1.5t12-9.5l126-127z" glyph-name="circumflex" horiz-adv-x="398" unicode="&#x2c6;"/><glyph d="M368 665q-11-44-37-72t-66-28q-18 0-35.5 7t-34 15-31 15-27.5 7q-19 0-32.5-10.5t-27.5-35.5l-47 14q11 44 37 72t66 28q18 0 35.5-7t34-15 31-15 27.5-7q19 0 32.5 10.5t27.5 35.5z" glyph-name="tilde" horiz-adv-x="398" unicode="&#x2dc;"/><glyph d="M49 584v67h300v-67h-300z" glyph-name="macron" horiz-adv-x="398" unicode="&#xaf;"/><glyph d="M199 553q-62 0-103.5 37.5t-52.5 100.5l54 9q14-36 39.5-57t62.5-21 62 21 39 57l54-9q-11-63-52-100.5t-103-37.5z" glyph-name="breve" horiz-adv-x="398" unicode="&#x2d8;"/><glyph d="M252 559h-106v101h88q11 0 14.5-4t3.5-13v-84z" glyph-name="dotaccent" horiz-adv-x="398" unicode="&#x2d9;"/><glyph d="M314 656q0-26-9.5-46.5t-25-34.5-36.5-22-44-8-44 8-37 22-25 34.5-9 46.5q0 25 9 46t25 35 37 22 44 8 44-8 36.5-22 25-35 9.5-46zM255 656q0 28-15 41.5t-41 13.5-41-13.5-15-41.5 15-41.5 41-13.5 41 13.5 15 41.5z" glyph-name="ring" horiz-adv-x="398" unicode="&#x2da;"/><glyph d="M200 9q-10-12-16-22.5t-6-18.5q0-11 17.5-17t38.5-14.5 38.5-23.5 17.5-45q0-42-42.5-69t-130.5-27l-10 50 62 12q23 5 32.5 11.5t9.5 15.5q0 10-16 16.5t-35.5 14-35.5 18.5-16 30q0 17 14 37.5t34 39.5z" glyph-name="cedilla" horiz-adv-x="398" unicode="&#xb8;"/><glyph d="M212 706l-167-144-37 34 137 158q9 10 18 1zM390 706l-167-144-37 34 137 158q9 10 18 1z" glyph-name="hungarumlaut" horiz-adv-x="398" unicode="&#x2dd;"/><glyph d="M261 19q-15-9-31-21.5t-29-27.5-21.5-32-8.5-34q0-21 13-33t40-12q8 0 19.5 1t22.5 3l23 4 15-45q-21-12-46.5-18.5t-48.5-6.5q-51 0-83.5 26t-32.5 68q0 44 36 82t90 68q11-6 21-11 8-5 14.5-8.5t6.5-2.5z" glyph-name="ogonek" horiz-adv-x="398" unicode="&#x2db;"/><glyph d="M363 685l-126-127q-8-8-12-9.5t-14-1.5h-25q-10 0-14 1.5t-12 9.5l-126 127 36 35 129-102h1l128 102z" glyph-name="caron" horiz-adv-x="398" unicode="&#x2c7;"/><glyph d="M144-260l27 202h62q8 0 12-2t6-11q1-5 1.5-11.5t.5-12.5q0-8-1.5-16.5t-5-19-9.5-25-15-35.5l-35-78z" glyph-name="commaaccent" horiz-adv-x="398" unicode="&#xf6c3;"/><glyph d="M76 836l40 59q5 7 8.5 7.5t10.5-4.5l187-139-30-40z" glyph-name="grave.cap" horiz-adv-x="398"/><glyph d="M106 719l-30 40 187 139q7 5 10.5 4.5t8.5-7.5l40-59z" glyph-name="acute.cap" horiz-adv-x="398"/><glyph d="M153 751h-98v96h80q11 0 14.5-3t3.5-12v-81zM342 751h-98v96h80q11 0 14.5-3t3.5-12v-81z" glyph-name="dieresis.cap" horiz-adv-x="398"/><glyph d="M328 721l-128 102h-1l-129-102-36 35 126 127q8 8 12 9.5t14 1.5h25q10 0 14-1.5t12-9.5l126-127z" glyph-name="circumflex.cap" horiz-adv-x="398"/><glyph d="M368 845q-11-44-37-72t-66-28q-18 0-35.5 7t-34 15-31 15-27.5 7q-19 0-32.5-10.5t-27.5-35.5l-47 14q11 44 37 72t66 28q18 0 35.5-7t34-15 31-15 27.5-7q19 0 32.5 10.5t27.5 35.5z" glyph-name="tilde.cap" horiz-adv-x="398"/><glyph d="M49 764v67h300v-67h-300z" glyph-name="macron.cap" horiz-adv-x="398"/><glyph d="M199 733q-62 0-103.5 37.5t-52.5 100.5l54 9q14-36 39.5-57t62.5-21 62 21 39 57l54-9q-11-63-52-100.5t-103-37.5z" glyph-name="breve.cap" horiz-adv-x="398"/><glyph d="M252 739h-106v101h88q11 0 14.5-4t3.5-13v-84z" glyph-name="dotaccent.cap" horiz-adv-x="398"/><glyph d="M314 836q0-26-9.5-46.5t-25-34.5-36.5-22-44-8-44 8-37 22-25 34.5-9 46.5q0 25 9 46t25 35 37 22 44 8 44-8 36.5-22 25-35 9.5-46zM255 836q0 28-15 41.5t-41 13.5-41-13.5-15-41.5 15-41.5 41-13.5 41 13.5 15 41.5z" glyph-name="ring.cap" horiz-adv-x="398"/><glyph d="M212 886l-167-144-37 34 137 158q9 10 18 1zM390 886l-167-144-37 34 137 158q9 10 18 1z" glyph-name="hungarumlaut.cap" horiz-adv-x="398"/><glyph d="M363 865l-126-127q-8-8-12-9.5t-14-1.5h-25q-10 0-14 1.5t-12 9.5l-126 127 36 35 129-102h1l128 102z" glyph-name="caron.cap" horiz-adv-x="398"/><glyph d="M500 156h-332l-56-146q-2-6-5-8t-11-2h-82l266 663h91q8 0 11-2t6-9l273-652h-85q-12 0-16 10zM196 230h274l-55 138q-33 83-53.5 134.5t-30.5 79.5h-1q-9-26-29-79.5t-52-134.5zM214 836l40 59q5 7 8.5 7.5t10.5-4.5l187-139-30-40z" glyph-name="Agrave" horiz-adv-x="675" unicode="&#xc0;"/><glyph d="M500 156h-332l-56-146q-2-6-5-8t-11-2h-82l266 663h91q8 0 11-2t6-9l273-652h-85q-12 0-16 10zM196 230h274l-55 138q-33 83-53.5 134.5t-30.5 79.5h-1q-9-26-29-79.5t-52-134.5zM244 719l-30 40 187 139q7 5 10.5 4.5t8.5-7.5l40-59z" glyph-name="Aacute" horiz-adv-x="675" unicode="&#xc1;"/><glyph d="M500 156h-332l-56-146q-2-6-5-8t-11-2h-82l266 663h91q8 0 11-2t6-9l273-652h-85q-12 0-16 10zM196 230h274l-55 138q-33 83-53.5 134.5t-30.5 79.5h-1q-9-26-29-79.5t-52-134.5zM461 721l-128 102h-1l-129-102-36 35 126 127q8 8 12 9.5t14 1.5h25q10 0 14-1.5t12-9.5l126-127z" glyph-name="Acircumflex" horiz-adv-x="675" unicode="&#xc2;"/><glyph d="M500 156h-332l-56-146q-2-6-5-8t-11-2h-82l266 663h91q8 0 11-2t6-9l273-652h-85q-12 0-16 10zM196 230h274l-55 138q-33 83-53.5 134.5t-30.5 79.5h-1q-9-26-29-79.5t-52-134.5zM499 845q-11-44-37-72t-66-28q-18 0-35.5 7t-34 15-31 15-27.5 7q-19 0-32.5-10.5t-27.5-35.5l-47 14q11 44 37 72t66 28q18 0 35.5-7t34-15 31-15 27.5-7q19 0 32.5 10.5t27.5 35.5z" glyph-name="Atilde" horiz-adv-x="675" unicode="&#xc3;"/><glyph d="M500 156h-332l-56-146q-2-6-5-8t-11-2h-82l266 663h91q8 0 11-2t6-9l273-652h-85q-12 0-16 10zM196 230h274l-55 138q-33 83-53.5 134.5t-30.5 79.5h-1q-9-26-29-79.5t-52-134.5zM286 751h-98v96h80q11 0 14.5-3t3.5-12v-81zM475 751h-98v96h80q11 0 14.5-3t3.5-12v-81z" glyph-name="Adieresis" horiz-adv-x="675" unicode="&#xc4;"/><glyph d="M500 156h-332l-56-146q-2-6-5-8t-11-2h-82l266 663h91q8 0 11-2t6-9l273-652h-85q-12 0-16 10zM196 230h274l-55 138q-33 83-53.5 134.5t-30.5 79.5h-1q-9-26-29-79.5t-52-134.5zM181 764v67h300v-67h-300z" glyph-name="Amacron" horiz-adv-x="675" unicode="&#x100;"/><glyph d="M500 156h-332l-56-146q-2-6-5-8t-11-2h-82l266 663h91q8 0 11-2t6-9l273-652h-85q-12 0-16 10zM196 230h274l-55 138q-33 83-53.5 134.5t-30.5 79.5h-1q-9-26-29-79.5t-52-134.5zM332 733q-62 0-103.5 37.5t-52.5 100.5l54 9q14-36 39.5-57t62.5-21 62 21 39 57l54-9q-11-63-52-100.5t-103-37.5z" glyph-name="Abreve" horiz-adv-x="675" unicode="&#x102;"/><glyph d="M500 156h-332l-56-146q-2-6-5-8t-11-2h-82l266 663h91q8 0 11-2t6-9l273-652h-85q-12 0-16 10zM196 230h274l-55 138q-33 83-53.5 134.5t-30.5 79.5h-1q-9-26-29-79.5t-52-134.5zM495 865l-126-127q-8-8-12-9.5t-14-1.5h-25q-10 0-14 1.5t-12 9.5l-126 127 36 35 129-102h1l128 102z" glyph-name="Acaron" horiz-adv-x="675" unicode="&#x1cd;"/><glyph d="M661 0h-85q-12 0-16 10l-60 146h-332l-56-146q-2-6-5-8t-11-2h-82l261 650q-25 13-39.5 37.5t-14.5 57.5q0 25 9 46t25 35 37 22 44 8 44-8 36.5-22 25-35 9.5-46q0-35-17-60.5t-44-37.5zM392 745q0 28-15 41.5t-41 13.5-41-13.5-15-41.5 15-41.5 41-13.5 41 13.5 15 41.5zM196 230h274l-55 138q-33 83-53.5 134.5t-30.5 79.5h-1q-9-26-29-79.5t-52-134.5z" glyph-name="Aring" horiz-adv-x="675" unicode="&#xc5;"/><glyph d="M248 865l-30 40 187 139q7 5 10.5 4.5t8.5-7.5l40-59zM661 0h-85q-12 0-16 10l-60 146h-332l-56-146q-2-6-5-8t-11-2h-82l261 650q-25 13-39.5 37.5t-14.5 57.5q0 25 9 46t25 35 37 22 44 8 44-8 36.5-22 25-35 9.5-46q0-35-17-60.5t-44-37.5zM392 745q0 28-15 41.5t-41 13.5-41-13.5-15-41.5 15-41.5 41-13.5 41 13.5 15 41.5zM196 230h274l-55 138q-33 83-53.5 134.5t-30.5 79.5h-1q-9-26-29-79.5t-52-134.5z" glyph-name="Aringacute" horiz-adv-x="675" unicode="&#x1fa;"/><glyph d="M500 156h-332l-56-146q-2-6-5-8t-11-2h-82l266 663h91q8 0 11-2t6-9l273-652h-29q-25 0-41.5-8t-33.5-28q-11-13-17.5-29.5t-6.5-30.5q0-21 13-33t40-12q8 0 19.5 1t22.5 3l23 4 15-45q-21-12-46.5-18.5t-48.5-6.5q-51 0-83.5 26t-32.5 68 29 74 71 56zM196 230h274l-55 138q-33 83-53.5 134.5t-30.5 79.5h-1q-9-26-29-79.5t-52-134.5z" glyph-name="Aogonek" horiz-adv-x="675" unicode="&#x104;"/><glyph d="M113 10q-4-6-7-8t-11-2h-91l419 663h471v-77h-343v-205h307v-76h-307v-228h354v-77h-447v156h-255zM458 577q-24-46-63.5-110t-85.5-138l-61-99h210v347z" glyph-name="AE" horiz-adv-x="955" unicode="&#xc6;"/><glyph d="M113 10q-4-6-7-8t-11-2h-91l419 663h471v-77h-343v-205h307v-76h-307v-228h354v-77h-447v156h-255zM458 577q-24-46-63.5-110t-85.5-138l-61-99h210v347zM506 719l-30 40 187 139q7 5 10.5 4.5t8.5-7.5l40-59z" glyph-name="AEacute" horiz-adv-x="955" unicode="&#x1fc;"/><glyph d="M639 119q-54-59-130-94t-157-35q-69 0-127 25t-99.5 70-65 108-23.5 139q0 70 23 132t65 108.5 100.5 73.5 129.5 27q95 0 165-50.5t104-133.5l-62-37-63 63q-35 35-69 52.5t-81 17.5q-51 0-91.5-18.5t-68-52.5-42-80.5-14.5-102.5q0-120 59.5-186.5t171.5-66.5q35 0 73.5 11.5t78.5 31.5l87 45zM261 719l-30 40 187 139q7 5 10.5 4.5t8.5-7.5l40-59z" glyph-name="Cacute" horiz-adv-x="672" unicode="&#x106;"/><glyph d="M639 119q-53-57-126-92t-152-37q-8-13-8-22 0-11 17.5-17t38.5-14.5 38.5-23.5 17.5-45q0-42-42.5-69t-130.5-27l-10 50 62 12q23 5 32.5 11.5t9.5 15.5q0 10-16 16.5t-35.5 14-35.5 18.5-16 30q0 12 7.5 25.5t18.5 27.5q-60 7-110 34.5t-86 72-56 103.5-20 129 23 132 65 108.5 100.5 73.5 129.5 27q95 0 165-50.5t104-133.5l-62-37-63 63q-35 35-69 52.5t-81 17.5q-51 0-91.5-18.5t-68-52.5-42-80.5-14.5-102.5q0-120 59.5-186.5t171.5-66.5q35 0 73.5 11.5t78.5 31.5l87 45z" glyph-name="Ccedilla" horiz-adv-x="672" unicode="&#xc7;"/><glyph d="M639 119q-54-59-130-94t-157-35q-69 0-127 25t-99.5 70-65 108-23.5 139q0 70 23 132t65 108.5 100.5 73.5 129.5 27q95 0 165-50.5t104-133.5l-62-37-63 63q-35 35-69 52.5t-81 17.5q-51 0-91.5-18.5t-68-52.5-42-80.5-14.5-102.5q0-120 59.5-186.5t171.5-66.5q35 0 73.5 11.5t78.5 31.5l87 45zM482 721l-128 102h-1l-129-102-36 35 126 127q8 8 12 9.5t14 1.5h25q10 0 14-1.5t12-9.5l126-127z" glyph-name="Ccircumflex" horiz-adv-x="672" unicode="&#x108;"/><glyph d="M639 119q-54-59-130-94t-157-35q-69 0-127 25t-99.5 70-65 108-23.5 139q0 70 23 132t65 108.5 100.5 73.5 129.5 27q95 0 165-50.5t104-133.5l-62-37-63 63q-35 35-69 52.5t-81 17.5q-51 0-91.5-18.5t-68-52.5-42-80.5-14.5-102.5q0-120 59.5-186.5t171.5-66.5q35 0 73.5 11.5t78.5 31.5l87 45zM517 865l-126-127q-8-8-12-9.5t-14-1.5h-25q-10 0-14 1.5t-12 9.5l-126 127 36 35 129-102h1l128 102z" glyph-name="Ccaron" horiz-adv-x="672" unicode="&#x10c;"/><glyph d="M639 119q-54-59-130-94t-157-35q-69 0-127 25t-99.5 70-65 108-23.5 139q0 70 23 132t65 108.5 100.5 73.5 129.5 27q95 0 165-50.5t104-133.5l-62-37-63 63q-35 35-69 52.5t-81 17.5q-51 0-91.5-18.5t-68-52.5-42-80.5-14.5-102.5q0-120 59.5-186.5t171.5-66.5q35 0 73.5 11.5t78.5 31.5l87 45zM406 739h-106v101h88q11 0 14.5-4t3.5-13v-84z" glyph-name="Cdotaccent" horiz-adv-x="672" unicode="&#x10a;"/><glyph d="M253 78q83 0 145 13t101 51q30 29 46.5 76.5t16.5 113.5-16.5 113-46.5 76q-39 38-101 51t-145 13h-86v-507h86zM74 0v663h197q100 0 173.5-21t123.5-67q44-41 67-101.5t23-141.5-23-142-67-102q-50-46-123.5-67t-173.5-21h-197zM515 865l-126-127q-8-8-12-9.5t-14-1.5h-25q-10 0-14 1.5t-12 9.5l-126 127 36 35 129-102h1l128 102z" glyph-name="Dcaron" horiz-adv-x="695" unicode="&#x10e;"/><glyph d="M90 375v288h197q100 0 173.5-21t123.5-67q44-41 67-101.5t23-141.5-23-142-67-102q-50-46-123.5-67t-173.5-21h-197v304h-90v71h90zM270 78q83 0 144.5 13t100.5 51q30 29 46.5 76.5t16.5 113.5-16.5 113-46.5 76q-39 38-100.5 51t-144.5 13h-87v-210h160v-71h-160v-226h87z" glyph-name="Dcroat" horiz-adv-x="711" unicode="&#x110;"/><glyph d="M90 375v288h197q100 0 173.5-21t123.5-67q44-41 67-101.5t23-141.5-23-142-67-102q-50-46-123.5-67t-173.5-21h-197v304h-90v71h90zM270 78q83 0 144.5 13t100.5 51q30 29 46.5 76.5t16.5 113.5-16.5 113-46.5 76q-39 38-100.5 51t-144.5 13h-87v-210h160v-71h-160v-226h87z" glyph-name="Eth" horiz-adv-x="711" unicode="&#xd0;"/><glyph d="M510 663v-77h-343v-205h307v-76h-307v-228h354v-77h-447v663h436zM175 836l40 59q5 7 8.5 7.5t10.5-4.5l187-139-30-40z" glyph-name="Egrave" horiz-adv-x="571" unicode="&#xc8;"/><glyph d="M510 663v-77h-343v-205h307v-76h-307v-228h354v-77h-447v663h436zM207 719l-30 40 187 139q7 5 10.5 4.5t8.5-7.5l40-59z" glyph-name="Eacute" horiz-adv-x="571" unicode="&#xc9;"/><glyph d="M510 663v-77h-343v-205h307v-76h-307v-228h354v-77h-447v663h436zM421 721l-128 102h-1l-129-102-36 35 126 127q8 8 12 9.5t14 1.5h25q10 0 14-1.5t12-9.5l126-127z" glyph-name="Ecircumflex" horiz-adv-x="571" unicode="&#xca;"/><glyph d="M510 663v-77h-343v-205h307v-76h-307v-228h354v-77h-447v663h436zM468 865l-126-127q-8-8-12-9.5t-14-1.5h-25q-10 0-14 1.5t-12 9.5l-126 127 36 35 129-102h1l128 102z" glyph-name="Ecaron" horiz-adv-x="571" unicode="&#x11a;"/><glyph d="M510 663v-77h-343v-205h307v-76h-307v-228h354v-77h-447v663h436zM250 751h-98v96h80q11 0 14.5-3t3.5-12v-81zM439 751h-98v96h80q11 0 14.5-3t3.5-12v-81z" glyph-name="Edieresis" horiz-adv-x="571" unicode="&#xcb;"/><glyph d="M510 663v-77h-343v-205h307v-76h-307v-228h354v-77h-447v663h436zM144 764v67h300v-67h-300z" glyph-name="Emacron" horiz-adv-x="571" unicode="&#x112;"/><glyph d="M510 663v-77h-343v-205h307v-76h-307v-228h354v-77h-447v663h436zM300 733q-62 0-103.5 37.5t-52.5 100.5l54 9q14-36 39.5-57t62.5-21 62 21 39 57l54-9q-11-63-52-100.5t-103-37.5z" glyph-name="Ebreve" horiz-adv-x="571" unicode="&#x114;"/><glyph d="M510 663v-77h-343v-205h307v-76h-307v-228h354v-77h-447v663h436zM354 739h-106v101h88q11 0 14.5-4t3.5-13v-84z" glyph-name="Edotaccent" horiz-adv-x="571" unicode="&#x116;"/><glyph d="M510 663v-77h-343v-205h307v-76h-307v-228h354v-77h-32q-23 0-39-8.5t-32-27.5q-11-13-17.5-29.5t-6.5-30.5q0-21 13-33t40-12q8 0 19.5 1t22.5 3l23 4 15-45q-21-12-46.5-18.5t-48.5-6.5q-51 0-83.5 26t-32.5 68q0 31 18.5 59t46.5 50h-307v663h436z" glyph-name="Eogonek" horiz-adv-x="571" unicode="&#x118;"/><glyph d="M581 464l-66 57q-38 32-72.5 48.5t-83.5 16.5q-54 0-95.5-18t-70.5-51-44-80-15-105q0-128 63-191.5t170-63.5q41 0 93.5 12.5t97.5 36.5q9 5 11 9t2 13v119h-129v71h203q10 0 13-2.5t3-10.5v-325h-66l-17 61-56-28q-44-22-83-32.5t-86-10.5q-72 0-130 26t-99.5 71.5-63.5 108-22 134.5q0 78 25.5 141t69.5 108 103 69.5 127 24.5q48 0 90.5-13t78-36 63-53.5 45.5-66.5zM491 721l-128 102h-1l-129-102-36 35 126 127q8 8 12 9.5t14 1.5h25q10 0 14-1.5t12-9.5l126-127z" glyph-name="Gcircumflex" horiz-adv-x="727" unicode="&#x11c;"/><glyph d="M581 464l-66 57q-38 32-72.5 48.5t-83.5 16.5q-54 0-95.5-18t-70.5-51-44-80-15-105q0-128 63-191.5t170-63.5q41 0 93.5 12.5t97.5 36.5q9 5 11 9t2 13v119h-129v71h203q10 0 13-2.5t3-10.5v-325h-66l-17 61-56-28q-44-22-83-32.5t-86-10.5q-72 0-130 26t-99.5 71.5-63.5 108-22 134.5q0 78 25.5 141t69.5 108 103 69.5 127 24.5q48 0 90.5-13t78-36 63-53.5 45.5-66.5zM362 733q-62 0-103.5 37.5t-52.5 100.5l54 9q14-36 39.5-57t62.5-21 62 21 39 57l54-9q-11-63-52-100.5t-103-37.5z" glyph-name="Gbreve" horiz-adv-x="727" unicode="&#x11e;"/><glyph d="M581 464l-66 57q-38 32-72.5 48.5t-83.5 16.5q-54 0-95.5-18t-70.5-51-44-80-15-105q0-128 63-191.5t170-63.5q41 0 93.5 12.5t97.5 36.5q9 5 11 9t2 13v119h-129v71h203q10 0 13-2.5t3-10.5v-325h-66l-17 61-56-28q-44-22-83-32.5t-86-10.5q-72 0-130 26t-99.5 71.5-63.5 108-22 134.5q0 78 25.5 141t69.5 108 103 69.5 127 24.5q48 0 90.5-13t78-36 63-53.5 45.5-66.5zM416 739h-106v101h88q11 0 14.5-4t3.5-13v-84z" glyph-name="Gdotaccent" horiz-adv-x="727" unicode="&#x120;"/><glyph d="M581 464l-66 57q-38 32-72.5 48.5t-83.5 16.5q-54 0-95.5-18t-70.5-51-44-80-15-105q0-128 63-191.5t170-63.5q41 0 93.5 12.5t97.5 36.5q9 5 11 9t2 13v119h-129v71h203q10 0 13-2.5t3-10.5v-325h-66l-17 61-56-28q-44-22-83-32.5t-86-10.5q-72 0-130 26t-99.5 71.5-63.5 108-22 134.5q0 78 25.5 141t69.5 108 103 69.5 127 24.5q48 0 90.5-13t78-36 63-53.5 45.5-66.5zM307-260l27 202h62q8 0 12-2t6-11q1-5 1.5-11.5t.5-12.5q0-8-1.5-16.5t-5-19-9.5-25-15-35.5l-35-78z" glyph-name="Gcommaaccent" horiz-adv-x="727" unicode="&#x122;"/><glyph d="M533 305h-366v-305h-93v663h93v-279h366v279h93v-663h-93v305zM479 721l-128 102h-1l-129-102-36 35 126 127q8 8 12 9.5t14 1.5h25q10 0 14-1.5t12-9.5l126-127z" glyph-name="Hcircumflex" horiz-adv-x="700" unicode="&#x124;"/><glyph d="M541 305h-366v-305h-93v493h-74v68h74v102h93v-102h366v102h93v-102h74v-68h-74v-493h-93v305zM541 384v109h-366v-109h366z" glyph-name="Hbar" horiz-adv-x="716" unicode="&#x126;"/><glyph d="M74 663h93v-663h-93v663zM0 836l40 59q5 7 8.5 7.5t10.5-4.5l187-139-30-40z" glyph-name="Igrave" horiz-adv-x="249" unicode="&#xcc;"/><glyph d="M74 663h93v-663h-93v663zM30 719l-30 40 187 139q7 5 10.5 4.5t8.5-7.5l40-59z" glyph-name="Iacute" horiz-adv-x="249" unicode="&#xcd;"/><glyph d="M78 663h93v-663h-93v663zM254 721l-128 102h-1l-129-102-36 35 126 127q8 8 12 9.5t14 1.5h25q10 0 14-1.5t12-9.5l126-127z" glyph-name="Icircumflex" horiz-adv-x="249" unicode="&#xce;"/><glyph d="M78 663h93v-663h-93v663zM294 845q-11-44-37-72t-66-28q-18 0-35.5 7t-34 15-31 15-27.5 7q-19 0-32.5-10.5t-27.5-35.5l-47 14q11 44 37 72t66 28q18 0 35.5-7t34-15 31-15 27.5-7q19 0 32.5 10.5t27.5 35.5z" glyph-name="Itilde" horiz-adv-x="249" unicode="&#x128;"/><glyph d="M78 663h93v-663h-93v663zM79 751h-98v96h80q11 0 14.5-3t3.5-12v-81zM268 751h-98v96h80q11 0 14.5-3t3.5-12v-81z" glyph-name="Idieresis" horiz-adv-x="249" unicode="&#xcf;"/><glyph d="M78 663h93v-663h-93v663zM-26 764v67h300v-67h-300z" glyph-name="Imacron" horiz-adv-x="249" unicode="&#x12a;"/><glyph d="M78 663h93v-663h-93v663zM125 733q-62 0-103.5 37.5t-52.5 100.5l54 9q14-36 39.5-57t62.5-21 62 21 39 57l54-9q-11-63-52-100.5t-103-37.5z" glyph-name="Ibreve" horiz-adv-x="249" unicode="&#x12c;"/><glyph d="M79 663h93v-663h-93v663zM178 739h-106v101h88q11 0 14.5-4t3.5-13v-84z" glyph-name="Idotaccent" horiz-adv-x="249" unicode="&#x130;"/><glyph d="M7-109q0 39 21.5 68t49.5 43v661h93v-663q-42-11-64-39t-22-57q0-21 13-33t40-12q8 0 19.5 1t22.5 3l23 4 15-45q-21-12-46.5-18.5t-48.5-6.5q-51 0-83.5 26t-32.5 68z" glyph-name="Iogonek" horiz-adv-x="249" unicode="&#x12e;"/><glyph d="M78 663h93v-663h-93v663zM287 102l54-13q72-18 122-18 59 0 85 29 14 15 19 38t5 57v468h93v-461q0-57-13-95t-39-65q-25-25-60.5-38.5t-82.5-13.5q-52 0-105.5 15.5t-97.5 41.5z" glyph-name="IJ" horiz-adv-x="736" unicode="&#x132;"/><glyph d="M43 102l54-13q72-18 122-18 59 0 85 29 14 15 19 38t5 57v468h93v-461q0-57-13-95t-39-65q-25-25-60.5-38.5t-82.5-13.5q-52 0-105.5 15.5t-97.5 41.5zM504 721l-128 102h-1l-129-102-36 35 126 127q8 8 12 9.5t14 1.5h25q10 0 14-1.5t12-9.5l126-127z" glyph-name="Jcircumflex" horiz-adv-x="486" unicode="&#x134;"/><glyph d="M279 338q-10-9-25-21t-30.5-24-30.5-22.5-26-16.5v-254h-93v663h93v-327l377 332 53-57-252-218 280-393h-92q-9 0-13.5 2t-9.5 8zM258-260l27 202h62q8 0 12-2t6-11q1-5 1.5-11.5t.5-12.5q0-8-1.5-16.5t-5-19-9.5-25-15-35.5l-35-78z" glyph-name="Kcommaaccent" horiz-adv-x="637" unicode="&#x136;"/><glyph d="M74 663h93v-586h324v-77h-417v663zM70 719l-30 40 187 139q7 5 10.5 4.5t8.5-7.5l40-59z" glyph-name="Lacute" horiz-adv-x="522" unicode="&#x139;"/><glyph d="M74 663h93v-586h324v-77h-417v663zM269 461l27 202h62q8 0 12-2t6-11q1-5 1.5-11.5t.5-12.5q0-8-1.5-16.5t-5-19-9.5-25-15-35.5l-35-78z" glyph-name="Lcaron" horiz-adv-x="522" unicode="&#x13d;"/><glyph d="M74 663h93v-586h324v-77h-417v663zM235-260l27 202h62q8 0 12-2t6-11q1-5 1.5-11.5t.5-12.5q0-8-1.5-16.5t-5-19-9.5-25-15-35.5l-35-78z" glyph-name="Lcommaaccent" horiz-adv-x="522" unicode="&#x13b;"/><glyph d="M379 508l42-61-201-135v-235h324v-77h-417v263l-81-54-42 62 123 82v310h93v-261z" glyph-name="Lslash" horiz-adv-x="575" unicode="&#x141;"/><glyph d="M74 663h93v-586h324v-77h-417v663zM424 299h-106v101h88q11 0 14.5-4t3.5-13v-84z" glyph-name="Ldot" horiz-adv-x="522" unicode="&#x13f;"/><glyph d="M163 0h-89v663h64q8 0 12-1.5t10-8.5l286-358q17-21 34.5-43t33.5-43 29.5-38.5 22.5-29.5v522h89v-663h-63q-8 0-12 1.5t-10 8.5l-286 358q-17 21-34.5 43.5t-34 43.5-30.5 39-22 29v-523zM291 719l-30 40 187 139q7 5 10.5 4.5t8.5-7.5l40-59z" glyph-name="Nacute" horiz-adv-x="729" unicode="&#x143;"/><glyph d="M163 0h-89v663h64q8 0 12-1.5t10-8.5l286-358q17-21 34.5-43t33.5-43 29.5-38.5 22.5-29.5v522h89v-663h-63q-8 0-12 1.5t-10 8.5l-286 358q-17 21-34.5 43.5t-34 43.5-30.5 39-22 29v-523zM529 865l-126-127q-8-8-12-9.5t-14-1.5h-25q-10 0-14 1.5t-12 9.5l-126 127 36 35 129-102h1l128 102z" glyph-name="Ncaron" horiz-adv-x="729" unicode="&#x147;"/><glyph d="M163 0h-89v663h64q8 0 12-1.5t10-8.5l286-358q17-21 34.5-43t33.5-43 29.5-38.5 22.5-29.5v522h89v-663h-63q-8 0-12 1.5t-10 8.5l-286 358q-17 21-34.5 43.5t-34 43.5-30.5 39-22 29v-523zM533 845q-11-44-37-72t-66-28q-18 0-35.5 7t-34 15-31 15-27.5 7q-19 0-32.5-10.5t-27.5-35.5l-47 14q11 44 37 72t66 28q18 0 35.5-7t34-15 31-15 27.5-7q19 0 32.5 10.5t27.5 35.5z" glyph-name="Ntilde" horiz-adv-x="729" unicode="&#xd1;"/><glyph d="M163 0h-89v663h64q8 0 12-1.5t10-8.5l286-358q17-21 34.5-43t33.5-43 29.5-38.5 22.5-29.5v522h89v-663h-63q-8 0-12 1.5t-10 8.5l-286 358q-17 21-34.5 43.5t-34 43.5-30.5 39-22 29v-523zM300-260l27 202h62q8 0 12-2t6-11q1-5 1.5-11.5t.5-12.5q0-8-1.5-16.5t-5-19-9.5-25-15-35.5l-35-78z" glyph-name="Ncommaaccent" horiz-adv-x="729" unicode="&#x145;"/><glyph d="M284 368q-17 21-34.5 43.5t-34 43.5-30.5 39-22 29v-523h-89v663h64q8 0 12-1.5t10-8.5l286-358q17-21 34.5-43t33.5-43 29.5-38.5 22.5-29.5v522h89v-688q0-51-11-86.5t-34-61.5q-44-49-128-49-33 0-64 7.5t-52 19.5l14 56q20-3 43.5-4.5t37.5-1.5q59 0 82 26t23 88v46z" glyph-name="Eng" horiz-adv-x="729" unicode="&#x14a;"/><glyph d="M689 331q0-76-26-138.5t-71-107.5-104-70-125-25-125 25-104 70-71 107.5-26 138.5 26 139 71 108 104 70 125 25 125-25 104-70 71-108 26-139zM593 331q0 61-16.5 108t-47 79.5-73 49-93.5 16.5-93.5-16.5-73-49-47-79.5-16.5-108 16.5-108 47-79 73-48.5 93.5-16.5 93.5 16.5 73 48.5 47 79 16.5 108zM250 836l40 59q5 7 8.5 7.5t10.5-4.5l187-139-30-40z" glyph-name="Ograve" horiz-adv-x="726" unicode="&#xd2;"/><glyph d="M689 331q0-76-26-138.5t-71-107.5-104-70-125-25-125 25-104 70-71 107.5-26 138.5 26 139 71 108 104 70 125 25 125-25 104-70 71-108 26-139zM593 331q0 61-16.5 108t-47 79.5-73 49-93.5 16.5-93.5-16.5-73-49-47-79.5-16.5-108 16.5-108 47-79 73-48.5 93.5-16.5 93.5 16.5 73 48.5 47 79 16.5 108zM280 719l-30 40 187 139q7 5 10.5 4.5t8.5-7.5l40-59z" glyph-name="Oacute" horiz-adv-x="726" unicode="&#xd3;"/><glyph d="M689 331q0-76-26-138.5t-71-107.5-104-70-125-25-125 25-104 70-71 107.5-26 138.5 26 139 71 108 104 70 125 25 125-25 104-70 71-108 26-139zM593 331q0 61-16.5 108t-47 79.5-73 49-93.5 16.5-93.5-16.5-73-49-47-79.5-16.5-108 16.5-108 47-79 73-48.5 93.5-16.5 93.5 16.5 73 48.5 47 79 16.5 108zM492 721l-128 102h-1l-129-102-36 35 126 127q8 8 12 9.5t14 1.5h25q10 0 14-1.5t12-9.5l126-127z" glyph-name="Ocircumflex" horiz-adv-x="726" unicode="&#xd4;"/><glyph d="M689 331q0-76-26-138.5t-71-107.5-104-70-125-25-125 25-104 70-71 107.5-26 138.5 26 139 71 108 104 70 125 25 125-25 104-70 71-108 26-139zM593 331q0 61-16.5 108t-47 79.5-73 49-93.5 16.5-93.5-16.5-73-49-47-79.5-16.5-108 16.5-108 47-79 73-48.5 93.5-16.5 93.5 16.5 73 48.5 47 79 16.5 108zM532 845q-11-44-37-72t-66-28q-18 0-35.5 7t-34 15-31 15-27.5 7q-19 0-32.5-10.5t-27.5-35.5l-47 14q11 44 37 72t66 28q18 0 35.5-7t34-15 31-15 27.5-7q19 0 32.5 10.5t27.5 35.5z" glyph-name="Otilde" horiz-adv-x="726" unicode="&#xd5;"/><glyph d="M689 331q0-76-26-138.5t-71-107.5-104-70-125-25-125 25-104 70-71 107.5-26 138.5 26 139 71 108 104 70 125 25 125-25 104-70 71-108 26-139zM593 331q0 61-16.5 108t-47 79.5-73 49-93.5 16.5-93.5-16.5-73-49-47-79.5-16.5-108 16.5-108 47-79 73-48.5 93.5-16.5 93.5 16.5 73 48.5 47 79 16.5 108zM317 751h-98v96h80q11 0 14.5-3t3.5-12v-81zM506 751h-98v96h80q11 0 14.5-3t3.5-12v-81z" glyph-name="Odieresis" horiz-adv-x="726" unicode="&#xd6;"/><glyph d="M689 331q0-76-26-138.5t-71-107.5-104-70-125-25-125 25-104 70-71 107.5-26 138.5 26 139 71 108 104 70 125 25 125-25 104-70 71-108 26-139zM593 331q0 61-16.5 108t-47 79.5-73 49-93.5 16.5-93.5-16.5-73-49-47-79.5-16.5-108 16.5-108 47-79 73-48.5 93.5-16.5 93.5 16.5 73 48.5 47 79 16.5 108zM213 764v67h300v-67h-300z" glyph-name="Omacron" horiz-adv-x="726" unicode="&#x14c;"/><glyph d="M689 331q0-76-26-138.5t-71-107.5-104-70-125-25-125 25-104 70-71 107.5-26 138.5 26 139 71 108 104 70 125 25 125-25 104-70 71-108 26-139zM593 331q0 61-16.5 108t-47 79.5-73 49-93.5 16.5-93.5-16.5-73-49-47-79.5-16.5-108 16.5-108 47-79 73-48.5 93.5-16.5 93.5 16.5 73 48.5 47 79 16.5 108zM363 733q-62 0-103.5 37.5t-52.5 100.5l54 9q14-36 39.5-57t62.5-21 62 21 39 57l54-9q-11-63-52-100.5t-103-37.5z" glyph-name="Obreve" horiz-adv-x="726" unicode="&#x14e;"/><glyph d="M689 331q0-76-26-138.5t-71-107.5-104-70-125-25-125 25-104 70-71 107.5-26 138.5 26 139 71 108 104 70 125 25 125-25 104-70 71-108 26-139zM593 331q0 61-16.5 108t-47 79.5-73 49-93.5 16.5-93.5-16.5-73-49-47-79.5-16.5-108 16.5-108 47-79 73-48.5 93.5-16.5 93.5 16.5 73 48.5 47 79 16.5 108zM386 886l-167-144-37 34 137 158q9 10 18 1zM564 886l-167-144-37 34 137 158q9 10 18 1z" glyph-name="Ohungarumlaut" horiz-adv-x="726" unicode="&#x150;"/><glyph d="M130 88q-43 45-68 106.5t-25 136.5q0 76 26 139t71 108 104 70 125 25q94 0 171-49l65 87 59-41-68-90q45-46 72-109t27-140q0-76-26-138.5t-71-107.5-104-70-125-25q-98 0-178 52l-66-88-59 41zM593 331q0 58-14.5 102.5t-40.5 76.5l-300-399q52-32 125-32 51 0 93.5 16.5t73 48.5 47 79 16.5 108zM133 331q0-55 13.5-97.5t37.5-74.5l298 397q-21 13-53.5 20.5t-65.5 7.5q-51 0-93.5-16.5t-73-49-47-79.5-16.5-108z" glyph-name="Oslash" horiz-adv-x="726" unicode="&#xd8;"/><glyph d="M130 88q-43 45-68 106.5t-25 136.5q0 76 26 139t71 108 104 70 125 25q94 0 171-49l65 87 59-41-68-90q45-46 72-109t27-140q0-76-26-138.5t-71-107.5-104-70-125-25q-98 0-178 52l-66-88-59 41zM593 331q0 58-14.5 102.5t-40.5 76.5l-300-399q52-32 125-32 51 0 93.5 16.5t73 48.5 47 79 16.5 108zM133 331q0-55 13.5-97.5t37.5-74.5l298 397q-21 13-53.5 20.5t-65.5 7.5q-51 0-93.5-16.5t-73-49-47-79.5-16.5-108zM278 719l-30 40 187 139q7 5 10.5 4.5t8.5-7.5l40-59z" glyph-name="Oslashacute" horiz-adv-x="726" unicode="&#x1fe;"/><glyph d="M1023 663v-77h-343v-205h313v-76h-313v-228h354v-77h-447v103q-35-49-93.5-81t-130.5-32q-66 0-125 25t-104 70-71 107.5-26 138.5 26 139 71 108 104 70 125 25q72 0 130.5-32.5t93.5-80.5v103h436zM593 331q0 61-16.5 108t-47 79.5-73 49-93.5 16.5-93.5-16.5-73-49-47-79.5-16.5-108 16.5-108 47-79 73-48.5 93.5-16.5 93.5 16.5 73 48.5 47 79 16.5 108z" glyph-name="OE" horiz-adv-x="1084" unicode="&#x152;"/><glyph d="M167 0h-93v663h93v-110h149q65 0 115-13.5t85-47.5q26-25 40.5-63.5t14.5-87.5q0-54-16.5-99t-48.5-76q-25-24-55.5-36t-83.5-12h-200v-118zM167 196h220q21 0 33 5t21 16q17 20 26.5 53t9.5 70q0 34-8 57.5t-23 39.5q-20 21-53.5 29.5t-78.5 8.5h-147v-279z" glyph-name="Thorn" horiz-adv-x="613" unicode="&#xde;"/><glyph d="M374 233q-4 7-7.5 8.5t-11.5 1.5h-188v-243h-93v663h240q73 0 121.5-14.5t81.5-47.5q25-26 39.5-62t14.5-81q0-69-33-120t-81-80l153-258h-87q-9 0-13 2.5t-8 8.5zM167 319h219q20 0 32 5.5t21 15.5q17 19 27.5 52t10.5 62q0 32-8.5 55.5t-23.5 39.5q-20 20-49.5 28.5t-75.5 8.5h-153v-267zM243 719l-30 40 187 139q7 5 10.5 4.5t8.5-7.5l40-59z" glyph-name="Racute" horiz-adv-x="641" unicode="&#x154;"/><glyph d="M374 233q-4 7-7.5 8.5t-11.5 1.5h-188v-243h-93v663h240q73 0 121.5-14.5t81.5-47.5q25-26 39.5-62t14.5-81q0-69-33-120t-81-80l153-258h-87q-9 0-13 2.5t-8 8.5zM167 319h219q20 0 32 5.5t21 15.5q17 19 27.5 52t10.5 62q0 32-8.5 55.5t-23.5 39.5q-20 20-49.5 28.5t-75.5 8.5h-153v-267zM486 865l-126-127q-8-8-12-9.5t-14-1.5h-25q-10 0-14 1.5t-12 9.5l-126 127 36 35 129-102h1l128 102z" glyph-name="Rcaron" horiz-adv-x="641" unicode="&#x158;"/><glyph d="M374 233q-4 7-7.5 8.5t-11.5 1.5h-188v-243h-93v663h240q73 0 121.5-14.5t81.5-47.5q25-26 39.5-62t14.5-81q0-69-33-120t-81-80l153-258h-87q-9 0-13 2.5t-8 8.5zM167 319h219q20 0 32 5.5t21 15.5q17 19 27.5 52t10.5 62q0 32-8.5 55.5t-23.5 39.5q-20 20-49.5 28.5t-75.5 8.5h-153v-267zM263-260l27 202h62q8 0 12-2t6-11q1-5 1.5-11.5t.5-12.5q0-8-1.5-16.5t-5-19-9.5-25-15-35.5l-35-78z" glyph-name="Rcommaaccent" horiz-adv-x="641" unicode="&#x156;"/><glyph d="M133 96q45-11 82.5-17.5t71.5-6.5q72 0 111 30t39 85q0 22-6 38t-20.5 29.5-38 25-57.5 23.5l-77 27q-43 15-77 31.5t-57 37.5-35.5 47.5-12.5 61.5q0 40 17.5 71t49 52 74.5 31.5 93 10.5q48 0 102-10.5t102-30.5l-15-59-60 8q-34 5-68 7.5t-60 2.5q-72 0-110.5-18t-38.5-62q0-18 6.5-31.5t21-25 38-22.5 57.5-23l74-26q45-16 79.5-33t58-39.5 36-52.5 12.5-70q0-45-17-81.5t-48-62.5-75-40-99-14q-31 0-63.5 5t-64 14-60.5 21-53 26l23 56zM209 719l-30 40 187 139q7 5 10.5 4.5t8.5-7.5l40-59z" glyph-name="Sacute" horiz-adv-x="569" unicode="&#x15a;"/><glyph d="M133 96q45-11 82.5-17.5t71.5-6.5q72 0 111 30t39 85q0 22-6 38t-20.5 29.5-38 25-57.5 23.5l-77 27q-43 15-77 31.5t-57 37.5-35.5 47.5-12.5 61.5q0 40 17.5 71t49 52 74.5 31.5 93 10.5q48 0 102-10.5t102-30.5l-15-59-60 8q-34 5-68 7.5t-60 2.5q-72 0-110.5-18t-38.5-62q0-18 6.5-31.5t21-25 38-22.5 57.5-23l74-26q45-16 79.5-33t58-39.5 36-52.5 12.5-70q0-45-17-81.5t-48-62.5-75-40-99-14q-31 0-63.5 5t-64 14-60.5 21-53 26l23 56zM420 721l-128 102h-1l-129-102-36 35 126 127q8 8 12 9.5t14 1.5h25q10 0 14-1.5t12-9.5l126-127z" glyph-name="Scircumflex" horiz-adv-x="569" unicode="&#x15c;"/><glyph d="M133 96q45-11 82.5-17.5t71.5-6.5q72 0 111 30t39 85q0 22-6 38t-20.5 29.5-38 25-57.5 23.5l-77 27q-43 15-77 31.5t-57 37.5-35.5 47.5-12.5 61.5q0 40 17.5 71t49 52 74.5 31.5 93 10.5q48 0 102-10.5t102-30.5l-15-59-60 8q-34 5-68 7.5t-60 2.5q-72 0-110.5-18t-38.5-62q0-18 6.5-31.5t21-25 38-22.5 57.5-23l74-26q45-16 79.5-33t58-39.5 36-52.5 12.5-70q0-45-17-81.5t-48-62.5-75-40-99-14q-31 0-63.5 5t-64 14-60.5 21-53 26l23 56zM456 865l-126-127q-8-8-12-9.5t-14-1.5h-25q-10 0-14 1.5t-12 9.5l-126 127 36 35 129-102h1l128 102z" glyph-name="Scaron" horiz-adv-x="569" unicode="&#x160;"/><glyph d="M133 96q45-11 82.5-17.5t71.5-6.5q72 0 111 30t39 85q0 22-6.5 38t-21 29.5-38.5 25-58 23.5l-77 27q-43 15-77 31.5t-57 37.5-35.5 47.5-12.5 61.5q0 40 17.5 71t49 52 74.5 31.5 93 10.5q48 0 102-10.5t102-30.5l-15-59-60 8q-34 5-68 7.5t-60 2.5q-72 0-110.5-18t-38.5-62q0-18 6.5-31.5t21-25 38-22.5 57.5-23l74-26q45-16 80-33t59-39.5 36.5-52.5 12.5-70q0-43-15.5-78t-44-61-69.5-41-92-17q-8-14-8-23 0-11 17.5-17t38.5-14.5 38.5-23.5 17.5-45q0-42-42.5-69t-130.5-27l-10 50 62 12q23 5 32.5 11.5t9.5 15.5q0 10-16 16.5t-35.5 14-35.5 18.5-16 30q0 12 6.5 25t17.5 27q-55 5-109.5 23t-95.5 42l23 55z" glyph-name="Scedilla" horiz-adv-x="569" unicode="&#x15e;"/><glyph d="M133 96q45-11 82.5-17.5t71.5-6.5q72 0 111 30t39 85q0 22-6 38t-20.5 29.5-38 25-57.5 23.5l-77 27q-43 15-77 31.5t-57 37.5-35.5 47.5-12.5 61.5q0 40 17.5 71t49 52 74.5 31.5 93 10.5q48 0 102-10.5t102-30.5l-15-59-60 8q-34 5-68 7.5t-60 2.5q-72 0-110.5-18t-38.5-62q0-18 6.5-31.5t21-25 38-22.5 57.5-23l74-26q45-16 79.5-33t58-39.5 36-52.5 12.5-70q0-45-17-81.5t-48-62.5-75-40-99-14q-31 0-63.5 5t-64 14-60.5 21-53 26l23 56zM233-260l27 202h62q8 0 12-2t6-11q1-5 1.5-11.5t.5-12.5q0-8-1.5-16.5t-5-19-9.5-25-15-35.5l-35-78z" glyph-name="Scommaaccent" horiz-adv-x="569" unicode="&#x218;"/><glyph d="M246 586h-225v77h543v-77h-225v-586h-93v586zM457 865l-126-127q-8-8-12-9.5t-14-1.5h-25q-10 0-14 1.5t-12 9.5l-126 127 36 35 129-102h1l128 102z" glyph-name="Tcaron" horiz-adv-x="585" unicode="&#x164;"/><glyph d="M246 586h-225v77h543v-77h-225v-586h-93v586zM225-260l27 202h62q8 0 12-2t6-11q1-5 1.5-11.5t.5-12.5q0-8-1.5-16.5t-5-19-9.5-25-15-35.5l-35-78z" glyph-name="Tcommaaccent" horiz-adv-x="585" unicode="&#x162;"/><glyph d="M246 586h-225v77h543v-77h-225v-586h-93v586zM225-260l27 202h62q8 0 12-2t6-11q1-5 1.5-11.5t.5-12.5q0-8-1.5-16.5t-5-19-9.5-25-15-35.5l-35-78z" glyph-name="uni021A" horiz-adv-x="585" unicode="&#x21a;"/><glyph d="M246 586h-225v77h543v-77h-225v-218h152v-71h-152v-297h-93v297h-152v71h152v218z" glyph-name="Tbar" horiz-adv-x="585" unicode="&#x166;"/><glyph d="M621 253q0-122-65-186-35-35-89.5-56t-120.5-21-121 20.5-90 55.5q-33 32-49 77.5t-16 108.5v411h93v-409q0-45 9-75t29-52q22-23 59-36t86-13 86 13 59 36q20 22 29.5 52t9.5 75v409h91v-410zM206 836l40 59q5 7 8.5 7.5t10.5-4.5l187-139-30-40z" glyph-name="Ugrave" horiz-adv-x="691" unicode="&#xd9;"/><glyph d="M621 253q0-122-65-186-35-35-89.5-56t-120.5-21-121 20.5-90 55.5q-33 32-49 77.5t-16 108.5v411h93v-409q0-45 9-75t29-52q22-23 59-36t86-13 86 13 59 36q20 22 29.5 52t9.5 75v409h91v-410zM279 719l-30 40 187 139q7 5 10.5 4.5t8.5-7.5l40-59z" glyph-name="Uacute" horiz-adv-x="691" unicode="&#xda;"/><glyph d="M621 253q0-122-65-186-35-35-89.5-56t-120.5-21-121 20.5-90 55.5q-33 32-49 77.5t-16 108.5v411h93v-409q0-45 9-75t29-52q22-23 59-36t86-13 86 13 59 36q20 22 29.5 52t9.5 75v409h91v-410zM476 721l-128 102h-1l-129-102-36 35 126 127q8 8 12 9.5t14 1.5h25q10 0 14-1.5t12-9.5l126-127z" glyph-name="Ucircumflex" horiz-adv-x="691" unicode="&#xdb;"/><glyph d="M621 253q0-122-65-186-35-35-89.5-56t-120.5-21-121 20.5-90 55.5q-33 32-49 77.5t-16 108.5v411h93v-409q0-45 9-75t29-52q22-23 59-36t86-13 86 13 59 36q20 22 29.5 52t9.5 75v409h91v-410zM516 845q-11-44-37-72t-66-28q-18 0-35.5 7t-34 15-31 15-27.5 7q-19 0-32.5-10.5t-27.5-35.5l-47 14q11 44 37 72t66 28q18 0 35.5-7t34-15 31-15 27.5-7q19 0 32.5 10.5t27.5 35.5z" glyph-name="Utilde" horiz-adv-x="691" unicode="&#x168;"/><glyph d="M621 253q0-122-65-186-35-35-89.5-56t-120.5-21-121 20.5-90 55.5q-33 32-49 77.5t-16 108.5v411h93v-409q0-45 9-75t29-52q22-23 59-36t86-13 86 13 59 36q20 22 29.5 52t9.5 75v409h91v-410zM301 751h-98v96h80q11 0 14.5-3t3.5-12v-81zM490 751h-98v96h80q11 0 14.5-3t3.5-12v-81z" glyph-name="Udieresis" horiz-adv-x="691" unicode="&#xdc;"/><glyph d="M621 253q0-122-65-186-35-35-89.5-56t-120.5-21-121 20.5-90 55.5q-33 32-49 77.5t-16 108.5v411h93v-409q0-45 9-75t29-52q22-23 59-36t86-13 86 13 59 36q20 22 29.5 52t9.5 75v409h91v-410zM196 764v67h300v-67h-300z" glyph-name="Umacron" horiz-adv-x="691" unicode="&#x16a;"/><glyph d="M621 253q0-122-65-186-35-35-89.5-56t-120.5-21-121 20.5-90 55.5q-33 32-49 77.5t-16 108.5v411h93v-409q0-45 9-75t29-52q22-23 59-36t86-13 86 13 59 36q20 22 29.5 52t9.5 75v409h91v-410zM347 733q-62 0-103.5 37.5t-52.5 100.5l54 9q14-36 39.5-57t62.5-21 62 21 39 57l54-9q-11-63-52-100.5t-103-37.5z" glyph-name="Ubreve" horiz-adv-x="691" unicode="&#x16c;"/><glyph d="M621 253q0-122-65-186-35-35-89.5-56t-120.5-21-121 20.5-90 55.5q-33 32-49 77.5t-16 108.5v411h93v-409q0-45 9-75t29-52q22-23 59-36t86-13 86 13 59 36q20 22 29.5 52t9.5 75v409h91v-410zM461 836q0-26-9.5-46.5t-25-34.5-36.5-22-44-8-44 8-37 22-25 34.5-9 46.5q0 25 9 46t25 35 37 22 44 8 44-8 36.5-22 25-35 9.5-46zM402 836q0 28-15 41.5t-41 13.5-41-13.5-15-41.5 15-41.5 41-13.5 41 13.5 15 41.5z" glyph-name="Uring" horiz-adv-x="691" unicode="&#x16e;"/><glyph d="M621 253q0-122-65-186-35-35-89.5-56t-120.5-21-121 20.5-90 55.5q-33 32-49 77.5t-16 108.5v411h93v-409q0-45 9-75t29-52q22-23 59-36t86-13 86 13 59 36q20 22 29.5 52t9.5 75v409h91v-410zM391 886l-167-144-37 34 137 158q9 10 18 1zM569 886l-167-144-37 34 137 158q9 10 18 1z" glyph-name="Uhungarumlaut" horiz-adv-x="691" unicode="&#x170;"/><glyph d="M621 663v-406q0-72-20-116.5t-52-74.5q-23-22-54-40t-59.5-36.5-48.5-38.5-20-46q0-20 13.5-32.5t40.5-12.5q8 0 19 1t22 3l23 4 15-45q-21-12-46.5-18.5t-48.5-6.5q-51 0-83.5 26t-32.5 68q0 28 16 55t42 44q-66 1-121.5 21t-90.5 55q-33 32-49 77.5t-16 108.5v410h93v-409q0-45 9-75t29-52q22-23 59-36t86-13 86 13 59 36q20 22 29.5 52t9.5 75v409h91z" glyph-name="Uogonek" horiz-adv-x="691" unicode="&#x172;"/><glyph d="M647 320q9-27 18-58t18-61.5 17-59 14-50.5h2q9 43 26.5 102t37.5 123l108 338q2 6 5 7.5t9 1.5h81l-217-663h-93q-14 0-18 11l-96 303q-10 31-20 64.5t-19 64.5-16 58-11 46h-2q-5-19-12-47t-15.5-60.5-17.5-66-18-63.5l-90-310h-94q-14 0-18 11l-216 652h83q7 0 10-1.5t5-7.5l107-333q10-33 20.5-66t19.5-63 16.5-56 11.5-45h2q3 18 9.5 44l14 56t17 62 18.5 64l102 346h79q8 0 11.5-1.5t5.5-9.5zM373 836l40 59q5 7 8.5 7.5t10.5-4.5l187-139-30-40z" glyph-name="Wgrave" horiz-adv-x="993" unicode="&#x1e80;"/><glyph d="M647 320q9-27 18-58t18-61.5 17-59 14-50.5h2q9 43 26.5 102t37.5 123l108 338q2 6 5 7.5t9 1.5h81l-217-663h-93q-14 0-18 11l-96 303q-10 31-20 64.5t-19 64.5-16 58-11 46h-2q-5-19-12-47t-15.5-60.5-17.5-66-18-63.5l-90-310h-94q-14 0-18 11l-216 652h83q7 0 10-1.5t5-7.5l107-333q10-33 20.5-66t19.5-63 16.5-56 11.5-45h2q3 18 9.5 44l14 56t17 62 18.5 64l102 346h79q8 0 11.5-1.5t5.5-9.5zM403 719l-30 40 187 139q7 5 10.5 4.5t8.5-7.5l40-59z" glyph-name="Wacute" horiz-adv-x="993" unicode="&#x1e82;"/><glyph d="M647 320q9-27 18-58t18-61.5 17-59 14-50.5h2q9 43 26.5 102t37.5 123l108 338q2 6 5 7.5t9 1.5h81l-217-663h-93q-14 0-18 11l-96 303q-10 31-20 64.5t-19 64.5-16 58-11 46h-2q-5-19-12-47t-15.5-60.5-17.5-66-18-63.5l-90-310h-94q-14 0-18 11l-216 652h83q7 0 10-1.5t5-7.5l107-333q10-33 20.5-66t19.5-63 16.5-56 11.5-45h2q3 18 9.5 44l14 56t17 62 18.5 64l102 346h79q8 0 11.5-1.5t5.5-9.5zM626 721l-128 102h-1l-129-102-36 35 126 127q8 8 12 9.5t14 1.5h25q10 0 14-1.5t12-9.5l126-127z" glyph-name="Wcircumflex" horiz-adv-x="993" unicode="&#x174;"/><glyph d="M647 320q9-27 18-58t18-61.5 17-59 14-50.5h2q9 43 26.5 102t37.5 123l108 338q2 6 5 7.5t9 1.5h81l-217-663h-93q-14 0-18 11l-96 303q-10 31-20 64.5t-19 64.5-16 58-11 46h-2q-5-19-12-47t-15.5-60.5-17.5-66-18-63.5l-90-310h-94q-14 0-18 11l-216 652h83q7 0 10-1.5t5-7.5l107-333q10-33 20.5-66t19.5-63 16.5-56 11.5-45h2q3 18 9.5 44l14 56t17 62 18.5 64l102 346h79q8 0 11.5-1.5t5.5-9.5zM451 751h-98v96h80q11 0 14.5-3t3.5-12v-81zM640 751h-98v96h80q11 0 14.5-3t3.5-12v-81z" glyph-name="Wdieresis" horiz-adv-x="993" unicode="&#x1e84;"/><glyph d="M358 217v-217h-93v217l-263 446h90q6 0 9-1.5t7-7.5l104-181q35-61 60.5-107.5t39.5-75.5h2q14 29 39.5 76t59.5 107l103 181q5 9 17 9h86zM153 836l40 59q5 7 8.5 7.5t10.5-4.5l187-139-30-40z" glyph-name="Ygrave" horiz-adv-x="621" unicode="&#x1ef2;"/><glyph d="M358 217v-217h-93v217l-263 446h90q6 0 9-1.5t7-7.5l104-181q35-61 60.5-107.5t39.5-75.5h2q14 29 39.5 76t59.5 107l103 181q5 9 17 9h86zM244 719l-30 40 187 139q7 5 10.5 4.5t8.5-7.5l40-59z" glyph-name="Yacute" horiz-adv-x="621" unicode="&#xdd;"/><glyph d="M358 217v-217h-93v217l-263 446h90q6 0 9-1.5t7-7.5l104-181q35-61 60.5-107.5t39.5-75.5h2q14 29 39.5 76t59.5 107l103 181q5 9 17 9h86zM442 721l-128 102h-1l-129-102-36 35 126 127q8 8 12 9.5t14 1.5h25q10 0 14-1.5t12-9.5l126-127z" glyph-name="Ycircumflex" horiz-adv-x="621" unicode="&#x176;"/><glyph d="M358 217v-217h-93v217l-263 446h90q6 0 9-1.5t7-7.5l104-181q35-61 60.5-107.5t39.5-75.5h2q14 29 39.5 76t59.5 107l103 181q5 9 17 9h86zM265 751h-98v96h80q11 0 14.5-3t3.5-12v-81zM454 751h-98v96h80q11 0 14.5-3t3.5-12v-81z" glyph-name="Ydieresis" horiz-adv-x="621" unicode="&#x178;"/><glyph d="M43 586v77h485v-46q0-13-11-29l-253-362q-38-54-67.5-93t-41.5-56h378v-77h-491v45q0 8 2.5 14t8.5 15l254 362q37 52 64.5 89.5t44.5 60.5h-373zM204 719l-30 40 187 139q7 5 10.5 4.5t8.5-7.5l40-59z" glyph-name="Zacute" horiz-adv-x="575" unicode="&#x179;"/><glyph d="M43 586v77h485v-46q0-13-11-29l-253-362q-38-54-67.5-93t-41.5-56h378v-77h-491v45q0 8 2.5 14t8.5 15l254 362q37 52 64.5 89.5t44.5 60.5h-373zM456 865l-126-127q-8-8-12-9.5t-14-1.5h-25q-10 0-14 1.5t-12 9.5l-126 127 36 35 129-102h1l128 102z" glyph-name="Zcaron" horiz-adv-x="575" unicode="&#x17d;"/><glyph d="M43 586v77h485v-46q0-13-11-29l-253-362q-38-54-67.5-93t-41.5-56h378v-77h-491v45q0 8 2.5 14t8.5 15l254 362q37 52 64.5 89.5t44.5 60.5h-373zM340 739h-106v101h88q11 0 14.5-4t3.5-13v-84z" glyph-name="Zdotaccent" horiz-adv-x="575" unicode="&#x17b;"/><glyph d="M365 313q0 29-5 45.5t-16 28.5q-14 16-37.5 23t-53.5 7q-27 0-56.5-6t-58.5-17l-50-18-28 48q50 36 100.5 54t100.5 18q44 0 82.5-13.5t65.5-42.5q21-23 32.5-53t11.5-77v-238l71-13v-45q-15-7-35-11.5t-39-4.5q-26 0-45.5 12t-30.5 33l-33-17q-28-14-61-24t-66-10q-42 0-75 13t-57 36q-23 22-36 51t-13 62q0 64 43.5 98t123.5 34h8q15 0 34.5-1t41-2.5 42.5-4 39-4.5v39zM365 207q0 5-2 7.5t-10 2.5h-170q-18 0-29-3.5t-18-10.5q-15-15-15-46 0-38 27-64t79-26q32 0 67.5 9.5t61.5 23.5q9 5 9 16v91zM135 656l40 59q5 7 8.5 7.5t10.5-4.5l187-139-30-40z" glyph-name="agrave" horiz-adv-x="536" unicode="&#xe0;"/><glyph d="M365 313q0 29-5 45.5t-16 28.5q-14 16-37.5 23t-53.5 7q-27 0-56.5-6t-58.5-17l-50-18-28 48q50 36 100.5 54t100.5 18q44 0 82.5-13.5t65.5-42.5q21-23 32.5-53t11.5-77v-238l71-13v-45q-15-7-35-11.5t-39-4.5q-26 0-45.5 12t-30.5 33l-33-17q-28-14-61-24t-66-10q-42 0-75 13t-57 36q-23 22-36 51t-13 62q0 64 43.5 98t123.5 34h8q15 0 34.5-1t41-2.5 42.5-4 39-4.5v39zM365 207q0 5-2 7.5t-10 2.5h-170q-18 0-29-3.5t-18-10.5q-15-15-15-46 0-38 27-64t79-26q32 0 67.5 9.5t61.5 23.5q9 5 9 16v91zM175 539l-30 40 187 139q7 5 10.5 4.5t8.5-7.5l40-59z" glyph-name="aacute" horiz-adv-x="536" unicode="&#xe1;"/><glyph d="M365 313q0 29-5 45.5t-16 28.5q-14 16-37.5 23t-53.5 7q-27 0-56.5-6t-58.5-17l-50-18-28 48q50 36 100.5 54t100.5 18q44 0 82.5-13.5t65.5-42.5q21-23 32.5-53t11.5-77v-238l71-13v-45q-15-7-35-11.5t-39-4.5q-26 0-45.5 12t-30.5 33l-33-17q-28-14-61-24t-66-10q-42 0-75 13t-57 36q-23 22-36 51t-13 62q0 64 43.5 98t123.5 34h8q15 0 34.5-1t41-2.5 42.5-4 39-4.5v39zM365 207q0 5-2 7.5t-10 2.5h-170q-18 0-29-3.5t-18-10.5q-15-15-15-46 0-38 27-64t79-26q32 0 67.5 9.5t61.5 23.5q9 5 9 16v91zM392 541l-128 102h-1l-129-102-36 35 126 127q8 8 12 9.5t14 1.5h25q10 0 14-1.5t12-9.5l126-127z" glyph-name="acircumflex" horiz-adv-x="536" unicode="&#xe2;"/><glyph d="M365 313q0 29-5 45.5t-16 28.5q-14 16-37.5 23t-53.5 7q-27 0-56.5-6t-58.5-17l-50-18-28 48q50 36 100.5 54t100.5 18q44 0 82.5-13.5t65.5-42.5q21-23 32.5-53t11.5-77v-238l71-13v-45q-15-7-35-11.5t-39-4.5q-26 0-45.5 12t-30.5 33l-33-17q-28-14-61-24t-66-10q-42 0-75 13t-57 36q-23 22-36 51t-13 62q0 64 43.5 98t123.5 34h8q15 0 34.5-1t41-2.5 42.5-4 39-4.5v39zM365 207q0 5-2 7.5t-10 2.5h-170q-18 0-29-3.5t-18-10.5q-15-15-15-46 0-38 27-64t79-26q32 0 67.5 9.5t61.5 23.5q9 5 9 16v91zM430 665q-11-44-37-72t-66-28q-18 0-35.5 7t-34 15-31 15-27.5 7q-19 0-32.5-10.5t-27.5-35.5l-47 14q11 44 37 72t66 28q18 0 35.5-7t34-15 31-15 27.5-7q19 0 32.5 10.5t27.5 35.5z" glyph-name="atilde" horiz-adv-x="536" unicode="&#xe3;"/><glyph d="M365 313q0 29-5 45.5t-16 28.5q-14 16-37.5 23t-53.5 7q-27 0-56.5-6t-58.5-17l-50-18-28 48q50 36 100.5 54t100.5 18q44 0 82.5-13.5t65.5-42.5q21-23 32.5-53t11.5-77v-238l71-13v-45q-15-7-35-11.5t-39-4.5q-26 0-45.5 12t-30.5 33l-33-17q-28-14-61-24t-66-10q-42 0-75 13t-57 36q-23 22-36 51t-13 62q0 64 43.5 98t123.5 34h8q15 0 34.5-1t41-2.5 42.5-4 39-4.5v39zM365 207q0 5-2 7.5t-10 2.5h-170q-18 0-29-3.5t-18-10.5q-15-15-15-46 0-38 27-64t79-26q32 0 67.5 9.5t61.5 23.5q9 5 9 16v91zM216 571h-98v96h80q11 0 14.5-3t3.5-12v-81zM405 571h-98v96h80q11 0 14.5-3t3.5-12v-81z" glyph-name="adieresis" horiz-adv-x="536" unicode="&#xe4;"/><glyph d="M365 313q0 29-5 45.5t-16 28.5q-14 16-37.5 23t-53.5 7q-27 0-56.5-6t-58.5-17l-50-18-28 48q50 36 100.5 54t100.5 18q44 0 82.5-13.5t65.5-42.5q21-23 32.5-53t11.5-77v-238l71-13v-45q-15-7-35-11.5t-39-4.5q-26 0-45.5 12t-30.5 33l-33-17q-28-14-61-24t-66-10q-42 0-75 13t-57 36q-23 22-36 51t-13 62q0 64 43.5 98t123.5 34h8q15 0 34.5-1t41-2.5 42.5-4 39-4.5v39zM365 207q0 5-2 7.5t-10 2.5h-170q-18 0-29-3.5t-18-10.5q-15-15-15-46 0-38 27-64t79-26q32 0 67.5 9.5t61.5 23.5q9 5 9 16v91zM111 584v67h300v-67h-300z" glyph-name="amacron" horiz-adv-x="536" unicode="&#x101;"/><glyph d="M365 313q0 29-5 45.5t-16 28.5q-14 16-37.5 23t-53.5 7q-27 0-56.5-6t-58.5-17l-50-18-28 48q50 36 100.5 54t100.5 18q44 0 82.5-13.5t65.5-42.5q21-23 32.5-53t11.5-77v-238l71-13v-45q-15-7-35-11.5t-39-4.5q-26 0-45.5 12t-30.5 33l-33-17q-28-14-61-24t-66-10q-42 0-75 13t-57 36q-23 22-36 51t-13 62q0 64 43.5 98t123.5 34h8q15 0 34.5-1t41-2.5 42.5-4 39-4.5v39zM365 207q0 5-2 7.5t-10 2.5h-170q-18 0-29-3.5t-18-10.5q-15-15-15-46 0-38 27-64t79-26q32 0 67.5 9.5t61.5 23.5q9 5 9 16v91zM262 553q-62 0-103.5 37.5t-52.5 100.5l54 9q14-36 39.5-57t62.5-21 62 21 39 57l54-9q-11-63-52-100.5t-103-37.5z" glyph-name="abreve" horiz-adv-x="536" unicode="&#x103;"/><glyph d="M365 313q0 29-5 45.5t-16 28.5q-14 16-37.5 23t-53.5 7q-27 0-56.5-6t-58.5-17l-50-18-28 48q50 36 100.5 54t100.5 18q44 0 82.5-13.5t65.5-42.5q21-23 32.5-53t11.5-77v-238l71-13v-45q-15-7-35-11.5t-39-4.5q-26 0-45.5 12t-30.5 33l-33-17q-28-14-61-24t-66-10q-42 0-75 13t-57 36q-23 22-36 51t-13 62q0 64 43.5 98t123.5 34h8q15 0 34.5-1t41-2.5 42.5-4 39-4.5v39zM365 207q0 5-2 7.5t-10 2.5h-170q-18 0-29-3.5t-18-10.5q-15-15-15-46 0-38 27-64t79-26q32 0 67.5 9.5t61.5 23.5q9 5 9 16v91zM426 685l-126-127q-8-8-12-9.5t-14-1.5h-25q-10 0-14 1.5t-12 9.5l-126 127 36 35 129-102h1l128 102z" glyph-name="acaron" horiz-adv-x="536" unicode="&#x1ce;"/><glyph d="M365 313q0 29-5 45.5t-16 28.5q-14 16-37.5 23t-53.5 7q-27 0-56.5-6t-58.5-17l-50-18-28 48q50 36 100.5 54t100.5 18q44 0 82.5-13.5t65.5-42.5q21-23 32.5-53t11.5-77v-238l71-13v-45q-15-7-35-11.5t-39-4.5q-26 0-45.5 12t-30.5 33l-33-17q-28-14-61-24t-66-10q-42 0-75 13t-57 36q-23 22-36 51t-13 62q0 64 43.5 98t123.5 34h8q15 0 34.5-1t41-2.5 42.5-4 39-4.5v39zM365 207q0 5-2 7.5t-10 2.5h-170q-18 0-29-3.5t-18-10.5q-15-15-15-46 0-38 27-64t79-26q32 0 67.5 9.5t61.5 23.5q9 5 9 16v91zM376 656q0-26-9.5-46.5t-25-34.5-36.5-22-44-8-44 8-37 22-25 34.5-9 46.5q0 25 9 46t25 35 37 22 44 8 44-8 36.5-22 25-35 9.5-46zM317 656q0 28-15 41.5t-41 13.5-41-13.5-15-41.5 15-41.5 41-13.5 41 13.5 15 41.5z" glyph-name="aring" horiz-adv-x="536" unicode="&#xe5;"/><glyph d="M365 313q0 29-5 45.5t-16 28.5q-14 16-37.5 23t-53.5 7q-27 0-56.5-6t-58.5-17l-50-18-28 48q50 36 100.5 54t100.5 18q44 0 82.5-13.5t65.5-42.5q21-23 32.5-53t11.5-77v-238l71-13v-45q-15-7-35-11.5t-39-4.5q-26 0-45.5 12t-30.5 33l-33-17q-28-14-61-24t-66-10q-42 0-75 13t-57 36q-23 22-36 51t-13 62q0 64 43.5 98t123.5 34h8q15 0 34.5-1t41-2.5 42.5-4 39-4.5v39zM365 207q0 5-2 7.5t-10 2.5h-170q-18 0-29-3.5t-18-10.5q-15-15-15-46 0-38 27-64t79-26q32 0 67.5 9.5t61.5 23.5q9 5 9 16v91zM376 642q0-26-9.5-46.5t-25-34.5-36.5-22-44-8-44 8-37 22-25 34.5-9 46.5q0 25 9 46t25 35 37 22 44 8 44-8 36.5-22 25-35 9.5-46zM317 642q0 28-15 41.5t-41 13.5-41-13.5-15-41.5 15-41.5 41-13.5 41 13.5 15 41.5zM168 762l-30 40 187 139q7 5 10.5 4.5t8.5-7.5l40-59z" glyph-name="aringacute" horiz-adv-x="536" unicode="&#x1fb;"/><glyph d="M365 313q0 29-5 45.5t-16 28.5q-14 16-37.5 23t-53.5 7q-27 0-56.5-6t-58.5-17l-50-18-28 48q50 36 100.5 54t100.5 18q44 0 82.5-13.5t65.5-42.5q21-23 32.5-53t11.5-77v-238l71-13v-45l-6-3q-57-26-89.5-52t-32.5-58q0-42 54-42 8 0 19 1t22 3l23 4 15-45q-21-12-46.5-18.5t-48.5-6.5q-51 0-83.5 26t-32.5 68q0 38 25.5 65t72.5 48q-28 10-42 39l-33-17q-28-14-61-24t-66-10q-42 0-75 13t-57 36q-23 22-36 51t-13 62q0 64 43.5 98t123.5 34h8q15 0 34.5-1t41-2.5 42.5-4 39-4.5v39zM365 207q0 5-2 7.5t-10 2.5h-170q-18 0-29-3.5t-18-10.5q-15-15-15-46 0-38 27-64t79-26q32 0 67.5 9.5t61.5 23.5q9 5 9 16v91z" glyph-name="aogonek" horiz-adv-x="536" unicode="&#x105;"/><glyph d="M811 73q-46-36-101-58.5t-109-22.5q-57 0-101.5 19t-76.5 54l-33-20q-38-23-80-38t-93-15q-35 0-67.5 12t-58 33.5-40.5 52-15 68.5q0 64 43.5 98t123.5 34h8q29 0 71.5-3.5t77.5-8.5v35q0 29-5 45.5t-16 28.5q-14 16-37.5 23t-53.5 7q-27 0-55.5-6t-57.5-17l-49-18-29 48q99 72 199 72 48 0 92-18t72-60q32 37 76.5 57.5t97.5 20.5q50 0 92-18t72-49.5 46.5-73.5 16.5-90q0-25-5.5-34.5t-16.5-9.5h-349q5-66 43.5-107.5t114.5-41.5q29 0 60.5 7.5t59.5 18.5l54 21zM230 67q42 0 85.5 15.5t70.5 36.5q-11 22-17.5 48.5t-8.5 53.5h-174q-18 0-29-3.5t-18-10.5q-15-15-15-46 0-38 27-66t79-28zM734 289q-4 57-40.5 92.5t-99.5 35.5q-62 0-100-33.5t-44-94.5h284z" glyph-name="ae" horiz-adv-x="859" unicode="&#xe6;"/><glyph d="M811 73q-46-36-101-58.5t-109-22.5q-57 0-101.5 19t-76.5 54l-33-20q-38-23-80-38t-93-15q-35 0-67.5 12t-58 33.5-40.5 52-15 68.5q0 64 43.5 98t123.5 34h8q29 0 71.5-3.5t77.5-8.5v35q0 29-5 45.5t-16 28.5q-14 16-37.5 23t-53.5 7q-27 0-55.5-6t-57.5-17l-49-18-29 48q99 72 199 72 48 0 92-18t72-60q32 37 76.5 57.5t97.5 20.5q50 0 92-18t72-49.5 46.5-73.5 16.5-90q0-25-5.5-34.5t-16.5-9.5h-349q5-66 43.5-107.5t114.5-41.5q29 0 60.5 7.5t59.5 18.5l54 21zM230 67q42 0 85.5 15.5t70.5 36.5q-11 22-17.5 48.5t-8.5 53.5h-174q-18 0-29-3.5t-18-10.5q-15-15-15-46 0-38 27-66t79-28zM734 289q-4 57-40.5 92.5t-99.5 35.5q-62 0-100-33.5t-44-94.5h284zM371 539l-30 40 187 139q7 5 10.5 4.5t8.5-7.5l40-59z" glyph-name="aeacute" horiz-adv-x="859" unicode="&#x1fd;"/><glyph d="M486 83q-45-40-101-65.5t-112-25.5q-54 0-98 19t-74.5 53-47.5 80.5-17 101.5q0 54 18 100t49.5 79 75 52 93.5 19q36 0 69-10.5t60-30 46.5-46 29.5-58.5l-56-29-35 33q-35 33-61 48t-61 15q-60 0-98.5-44.5t-38.5-125.5q0-88 40.5-132t115.5-44q50 0 118 31l55 25zM184 539l-30 40 187 139q7 5 10.5 4.5t8.5-7.5l40-59z" glyph-name="cacute" horiz-adv-x="512" unicode="&#x107;"/><glyph d="M486 83q-45-39-99-64t-109-27q-9-14-9-24 0-11 17.5-17t38.5-14.5 38.5-23.5 17.5-45q0-42-42.5-69t-130.5-27l-10 50 62 12q23 5 32.5 11.5t9.5 15.5q0 10-16 16.5t-35.5 14-35.5 18.5-16 30q0 13 7.5 27.5t20.5 28.5q-44 7-79.5 29t-60.5 55-38 75-13 91q0 54 18 100t50 79 75 52 93 19q36 0 69-10.5t60-30 46.5-46 29.5-58.5l-56-29-35 33q-35 33-61 48t-61 15q-59 0-98-44.5t-39-125.5q0-88 40.5-132t115.5-44q50 0 118 31l55 25z" glyph-name="ccedilla" horiz-adv-x="512" unicode="&#xe7;"/><glyph d="M486 83q-45-40-101-65.5t-112-25.5q-54 0-98 19t-74.5 53-47.5 80.5-17 101.5q0 54 18 100t49.5 79 75 52 93.5 19q36 0 69-10.5t60-30 46.5-46 29.5-58.5l-56-29-35 33q-35 33-61 48t-61 15q-60 0-98.5-44.5t-38.5-125.5q0-88 40.5-132t115.5-44q50 0 118 31l55 25zM400 541l-128 102h-1l-129-102-36 35 126 127q8 8 12 9.5t14 1.5h25q10 0 14-1.5t12-9.5l126-127z" glyph-name="ccircumflex" horiz-adv-x="512" unicode="&#x109;"/><glyph d="M486 83q-45-40-101-65.5t-112-25.5q-54 0-98 19t-74.5 53-47.5 80.5-17 101.5q0 54 18 100t49.5 79 75 52 93.5 19q36 0 69-10.5t60-30 46.5-46 29.5-58.5l-56-29-35 33q-35 33-61 48t-61 15q-60 0-98.5-44.5t-38.5-125.5q0-88 40.5-132t115.5-44q50 0 118 31l55 25zM436 685l-126-127q-8-8-12-9.5t-14-1.5h-25q-10 0-14 1.5t-12 9.5l-126 127 36 35 129-102h1l128 102z" glyph-name="ccaron" horiz-adv-x="512" unicode="&#x10d;"/><glyph d="M486 83q-45-40-101-65.5t-112-25.5q-54 0-98 19t-74.5 53-47.5 80.5-17 101.5q0 54 18 100t49.5 79 75 52 93.5 19q36 0 69-10.5t60-30 46.5-46 29.5-58.5l-56-29-35 33q-35 33-61 48t-61 15q-60 0-98.5-44.5t-38.5-125.5q0-88 40.5-132t115.5-44q50 0 118 31l55 25zM323 559h-106v101h88q11 0 14.5-4t3.5-13v-84z" glyph-name="cdotaccent" horiz-adv-x="512" unicode="&#x10b;"/></font>
</defs>
</svg>
